<?xml version="1.0" standalone="no"?>
<!DOCTYPE svg PUBLIC "-//W3C//DTD SVG 1.1//EN" "http://www.w3.org/Graphics/SVG/1.1/DTD/svg11.dtd" >
<!--
2013-9-30: Created.
-->
<svg>
<metadata>
Created by iconfont
</metadata>
<defs>

<font id="subfont" horiz-adv-x="1024" >
  <font-face
    font-family="subfont"
    font-weight="500"
    font-stretch="normal"
    units-per-em="1024"
    ascent="896"
    descent="-128"
  />
    <missing-glyph />
    
    <glyph glyph-name="x" unicode="x" horiz-adv-x="1001"
d="M281 543q-27 -1 -53 -1h-83q-18 0 -36.5 -6t-32.5 -18.5t-23 -32t-9 -45.5v-76h912v41q0 16 -0.5 30t-0.5 18q0 13 -5 29t-17 29.5t-31.5 22.5t-49.5 9h-133v-97h-438v97zM955 310v-52q0 -23 0.5 -52t0.5 -58t-10.5 -47.5t-26 -30t-33 -16t-31.5 -4.5q-14 -1 -29.5 -0.5
t-29.5 0.5h-32l-45 128h-439l-44 -128h-29h-34q-20 0 -45 1q-25 0 -41 9.5t-25.5 23t-13.5 29.5t-4 30v167h911zM163 247q-12 0 -21 -8.5t-9 -21.5t9 -21.5t21 -8.5q13 0 22 8.5t9 21.5t-9 21.5t-22 8.5zM316 123q-8 -26 -14 -48q-5 -19 -10.5 -37t-7.5 -25t-3 -15t1 -14.5
t9.5 -10.5t21.5 -4h37h67h81h80h64h36q23 0 34 12t2 38q-5 13 -9.5 30.5t-9.5 34.5q-5 19 -11 39h-368zM336 498v228q0 11 2.5 23t10 21.5t20.5 15.5t34 6h188q31 0 51.5 -14.5t20.5 -52.5v-227h-327z" />
    

    
    <glyph glyph-name="biaoqing" unicode="&#58897;" d="M512 831.488q92.16 0 174.08-35.328t142.336-95.744 95.744-142.336 35.328-174.08q0-93.184-35.328-174.592t-95.744-142.336-142.336-95.744-174.08-34.816q-93.184 0-174.592 34.816t-142.336 95.744-96.256 142.336-35.328 174.592q0 92.16 35.328 174.08t96.256 142.336 142.336 95.744 174.592 35.328zM673.792 609.28q-29.696 0-50.176-24.576t-20.48-59.392q0-35.84 20.48-60.416t50.176-24.576 50.176 24.576 20.48 60.416q0 34.816-20.48 59.392t-50.176 24.576zM342.016 607.232q-28.672 0-48.64-24.576t-19.968-59.392q0-35.84 19.968-59.904t48.64-24.064 49.152 24.064 20.48 59.904q0 34.816-20.48 59.392t-49.152 24.576zM516.096 51.2q54.272 0 102.912 19.456t87.552 53.248 66.048 78.848 38.4 96.256l0 5.12q0 8.192-6.144 14.848t-15.36 6.656l-547.84 0q-9.216 0-16.896-6.656t-5.632-14.848q2.048-10.24 3.072-14.336t2.048-6.144q13.312-49.152 40.96-91.648t65.024-73.728 84.48-49.152 101.376-17.92z"  horiz-adv-x="1024" />

    
    <glyph glyph-name="yijianfankui" unicode="&#58901;" d="M863.86005333 68.22570667000002H160.13994667c-29.90762667 0-54.13546667 24.23466667-54.13546667 54.12864V645.63882667c0 29.88714667 24.22784 54.13546667 54.13546667 54.13546666h703.72010666c29.90762667 0 54.13546667-24.24832 54.13546667-54.13546666v-523.28448C917.99552 92.46037333000004 893.76768 68.22570667000002 863.86005333 68.22570667000002zM178.18282667 140.40405333h667.64117333V597.13536l-316.83242667-228.21546667c-6.06208-7.89845333-14.6432-11.93301333-23.37450666-11.52341333-7.38645333-0.24576-14.62272 2.92864-20.26154667 9.05898667L178.18282667 578.7852800000001V140.40405333zM504.32 436.70186667l264.98389333 190.88725333H228.1472L504.32 436.70186667z"  horiz-adv-x="1024" />

    
    <glyph glyph-name="lingdang" unicode="&#58881;" d="M644.992-52q6.016 0-3.488-15.008t-28.992-32.992-46.016-32.992-56.512-15.008q-27.008 0-52 15.008t-44 32.992-28.992 32.992-6.016 15.008l266.016 0zM892.992 32.992q7.008-8.992 6.496-17.504t-4.512-14.496-10.016-9.504-12-3.488l-730.016 0q-14.016 0-20.512 11.488t4.512 28.512q16.992 30.016 40 67.008t43.488 79.488 35.488 90.016 15.008 99.488q0 50.016 14.016 90.016t36.512 70.016 52 51.008 61.504 32q-16 26.016-16 54.016 0 40.992 28 68.992t68.992 28 68.992-28 28-68.992q0-14.016-4-27.488t-11.008-24.512q34.016-11.008 64.512-32t52.992-52 36-71.008 13.504-88.992q0-50.016 15.008-98.496t36-92 44.512-79.488 42.496-62.016zM467.008 660.992q0-16 11.008-27.488t27.008-11.488l2.016 0q16 0.992 27.008 12t11.008 27.008q0 16.992-11.008 28t-28 11.008-28-11.008-11.008-28z"  horiz-adv-x="1024" />

    
    <glyph glyph-name="jinlingyingcaiwangtubiao29" unicode="&#59068;" d="M787.738-154.189c-2.432 0-4.864 0.461-7.194 1.408l-267.725 108.365-267.725-108.365c-6.144-2.483-13.133-1.613-18.483 2.253-5.376 3.891-8.346 10.266-7.885 16.896l20.326 288.102-185.779 221.107c-4.25 5.069-5.606 11.981-3.558 18.278 2.022 6.298 7.168 11.11 13.619 12.698l280.269 69.709 152.883 245.018c7.040 11.238 25.549 11.238 32.589 0l152.883-245.018 280.269-69.709c6.451-1.613 11.597-6.4 13.619-12.698 2.048-6.298 0.691-13.21-3.558-18.278l-185.779-221.107 20.326-288.102c0.486-6.605-2.509-12.979-7.885-16.896-3.251-2.406-7.219-3.661-11.213-3.661z"  horiz-adv-x="1024" />

    
    <glyph glyph-name="zige" unicode="&#58976;" d="M510.977205 895.155772L68.302107 639.577886l0-511.155772L510.977205-127.15577199999996l442.673052 255.577886L953.650257 639.577886 510.977205 895.155772zM928.067602 143.19251499999996L510.977205-97.615992 93.884762 143.19251499999996 93.884762 624.807485 510.977205 865.614969l417.090397-240.807485L928.067602 143.19251499999996zM223.186663 480.308463c0.286526-65.388243 22.927175-128.664382 63.960731-179.385577l-98.905614-159.447479c-3.015683-4.853541-2.898003-11.022031 0.25992-15.775288 3.15997-4.755304 8.631588-7.204076 14.467503-6.311753l110.891599 17.958 29.962405-105.10071c1.562589-5.53711 6.266727-9.640568 11.991102-10.435677 0.683569-0.097214 1.362021-0.143263 2.018983-0.143263 4.982478 0 9.711176 2.566452 12.388145 6.890944l104.228853 167.994132c12.106736-1.523703 24.176632-2.89084 37.274952-2.291183 12.304234 0.045025 24.810059 0.924045 37.283138 2.604314l105.679901-167.04962c3.074012-4.871961 8.715499-7.405667 14.467503-6.637164 5.724375 0.853437 10.393721 4.982478 11.93175 10.552334l29.05064 105.34221 111.033839-16.974603c5.641487-0.912789 11.275811 1.641383 14.382569 6.42227 3.133364 4.78805 3.190669 10.948353 0.143263 15.774265l-100.333126 158.583808c40.611953 51.058886 62.711274 114.52536 62.424748 179.924859-0.683569 157.724231-129.545448 286.043758-288.538579 286.043758C350.824669 768.164496 222.503095 638.7142160000001 223.186663 480.308463zM768.713244 482.686626c0.25992-62.027705-21.864984-122.100896-62.280462-169.172981-4.183276-4.858658-4.696975-11.880585-1.277086-17.286712l88.87619-140.469242-92.236727 14.093996c-7.491625 1.154289-14.297634-3.405563-16.264429-10.538007l-23.722284-86.074378L568.659953 220.50227500000005c-3.134387 4.943592-9.002025 7.457856-14.753005 6.590092-14.127765-2.38942-28.307719-3.614317-43.399439-3.673669-13.501502 0-27.309996 1.11438-41.040718 3.303232-5.753027 0.984421-11.588943-1.705851-14.694677-6.702656l-91.867314-148.0765-24.464181 85.866646c-1.796926 6.331195-7.574512 10.577916-14.008039 10.577916-0.768503 0-1.537006-0.059352-2.338255-0.189312l-92.12621-14.908548 87.623663 141.243885c3.38919 5.451152 2.822278 12.452613-1.391696 17.285688-40.865733 46.747697-63.506383 106.619296-63.767326 168.600953C251.805468 622.771105 367.11468 739.074971 510.618025 739.687932 652.324444 739.687932 768.088004 624.392022 768.713244 482.686626zM420.066683 433.322335l-16.374946-98.007151c-0.911766-5.484921 1.36816-10.995425 5.867638-14.238282 2.534729-1.823532 5.523807-2.749624 8.513908-2.749624 2.331092 0 4.694929 0.566912 6.833639 1.706875l87.741343 46.616714 88.166015-45.848211c2.194992-1.139963 4.669346-1.7519 7.007601-1.647523 9.653871-0.416486 14.863523 6.434549 14.863523 14.576997 0 2.305509-0.5137 4.488221-1.478677 6.434549l-16.548908 93.950765 70.851675 69.671803c3.961218 3.888564 5.353938 9.699919 3.621481 14.963807-1.738597 5.269004-6.326079 9.099239-11.822257 9.867742l-98.390891 13.858636-44.369533 88.909959c-2.474354 4.948709-7.517207 8.069793-13.038968 8.069793l-0.060375 0c-5.548366-0.025583-10.622942-3.203972-13.038968-8.188496l-43.574425-89.290629-98.274234-14.709003c-5.498224-0.827855-10.023284-4.694929-11.737322-9.977235-1.682315-5.282307-0.229221-11.08036 3.764744-14.921851L420.066683 433.322335zM466.692606 514.269949c4.754281 0.710175 8.826016 3.713578 10.936073 8.03193l33.974789 69.628824 34.601052-69.335135c2.134617-4.299933 6.263657-7.255241 11.021008-7.92653l76.720336-10.80816-55.246255-54.320163c-3.419889-3.362584-4.956895-8.199753-4.129041-12.929474l13.437034-76.311013-68.775386 35.757388c-4.267187 2.24718-9.339716 2.188852-13.554714-0.058328l-68.402903-36.350906 12.759605 76.416414c0.794086 4.748141-0.801249 9.55461-4.246721 12.889565l-55.729256 53.851489L466.692606 514.269949z"  horiz-adv-x="1024" />

    
    <glyph glyph-name="zan1" unicode="&#58900;" d="M916.037614 327.435862c-6.414083 44.101427-39.185464 79.632665-87.664595 95.027284-25.664519 8.16496-69.186755 19.030425-104.59008 27.472702 64.926732 92.924389 77.6935 188.963723 53.543474 243.951081-15.045671 34.252105-43.527352 53.908794-78.121242 53.908794-66.86078 0-84.323501-55.988152-97.074919-96.862072-1.889023-6.062066-3.837398-12.31549-5.976108-18.682501-11.841699-35.221176-71.226205-98.747002-157.911496-147.103336-64.895009-36.176944-127.032208-85.651752-129.652895-87.732134-8.66638-6.930853-13.70514-17.421788-13.70514-28.498054l0-351.381859c0-11.733229 5.63944-22.738887 15.156188-29.597085 52.219315-37.615713 236.396012-68.139913 328.930521-68.139913 48.12916 0 67.070558 7.564279 77.142961 13.247722 41.533952 23.48897 96.794533 156.445098 137.193639 268.313955C899.86733 236.640973 922.635893 282.057349 916.037614 327.435862L916.037614 327.435862 916.037614 327.435862zM169.214425 432.382053c-32.737612 0-59.273988-26.524097-59.273988-59.265802l0-358.658589c0-32.735565 26.5374-59.275012 59.273988-59.275012 32.731472 0 59.269895 26.539446 59.269895 59.275012l0 358.658589C228.48432 405.857956 201.945897 432.382053 169.214425 432.382053L169.214425 432.382053 169.214425 432.382053zM169.214425 432.382053"  horiz-adv-x="1024" />

    
    <glyph glyph-name="fenxiang" unicode="&#58954;" d="M768 110.999c17.328 0 33.5-3.172 48.5-9.5 15.001-6.343 28.156-15.172 39.5-26.5 11.328-11.344 20.156-24.5 26.5-39.5 6.329-15.001 9.5-31.172 9.5-48.5 0-17.344-3.172-33.5-9.5-48.5-6.343-15.001-15.172-28.172-26.5-39.5-11.344-11.344-24.5-20.172-39.5-26.5-15.001-6.343-31.172-9.5-48.5-9.5-17.344 0-33.5 3.156-48.5 9.5-15.001 6.329-28.172 15.156-39.5 26.5-11.344 11.328-20.172 24.5-26.5 39.5-6.343 15.001-9.5 31.156-9.5 48.5 0 2.656 0 5.156 0 7.5 0 2.329 0.329 4.5 1.001 6.5 0 2.656 0.156 5.156 0.5 7.5 0.329 2.329 0.828 4.5 1.5 6.5l-304 177.001c-6-5.344-12.172-10.172-18.5-14.5-6.343-4.343-13.172-7.844-20.5-10.5-7.344-3.344-15.001-5.671-23.001-7.001-8-1.344-16.343-2-25.001-2-17.344 0-33.844 3.328-49.5 10-15.671 6.656-29.172 15.657-40.5 27.001-12 12-21.344 25.657-28 41.001-6.672 15.328-10 32-10 50 0 17.328 3.328 33.828 10 49.5 6.656 15.657 16 29.156 28 40.5 11.328 12 24.828 21.328 40.5 28 15.657 6.656 32.156 10 49.5 10 8.656 0 17.001-0.844 25.001-2.5 8-1.671 15.657-4.172 23.001-7.5 7.328-2.672 14.156-6.172 20.5-10.5 6.329-4.343 12.5-9.172 18.5-14.5l301.001 176c-0.672 2-1.172 4.329-1.5 7.001-0.343 2.656-0.844 5.001-1.5 7.001 0 2.656-0.172 5.328-0.5 8-0.343 2.656-0.5 5.328-0.5 8 0 17.328 3.328 33.828 10 49.5 6.656 15.657 16 29.156 28 40.5 11.328 11.328 24.828 20.5 40.5 27.5 15.657 7.001 32.156 10.5 49.5 10.5 17.328 0 33.828-3.5 49.5-10.5 15.657-7.001 29.156-16.172 40.5-27.5 12-11.344 21.328-24.844 28-40.5 6.656-15.671 10-32.172 10-49.5 0-18-3.344-34.844-10-50.5-6.672-15.671-16-29.172-28-40.5-11.344-11.344-24.844-20.343-40.5-27.001-15.671-6.672-32.172-10-49.5-10-8.672 0-17.001 0.656-25.001 2-8 1.328-15.671 3.657-23.001 7.001-7.344 2.656-14.172 6.156-20.5 10.5-6.343 4.329-12.5 9.156-18.5 14.5l-300.999-175.001c0.656-2.672 1.156-5.172 1.5-7.5 0.329-2.343 0.828-4.844 1.5-7.5 0-2.672 0.156-5.172 0.5-7.5 0.329-2.343 0.5-4.844 0.5-7.5 0-2.672-0.172-5.344-0.5-8-0.343-2.672-0.5-5.344-0.5-8-0.672-2-1.172-4.343-1.5-7.001-0.343-2.672-0.844-5.001-1.5-7.001l304-177.001c5.328 4.656 11.328 9.001 18 13.001 6.656 4 13.328 7.657 20 11.001 7.328 2.656 14.828 4.656 22.5 6 7.657 1.327 15.5 1.999 23.5 1.999z"  horiz-adv-x="1024" />

    
    <glyph glyph-name="open-bookmarks" unicode="&#58960;" d="M238.933 662.844h568.889c28.035 0 45.511-17.476 45.511-45.511v-728.178c0-28.058-22.642-45.375-50.699-45.375l-278.3 194.128-275.137-194.128c-28.058 0-55.774 17.317-55.774 45.375v728.178c0 28.035 17.476 45.511 45.511 45.511z"  horiz-adv-x="1024" />

    
    <glyph glyph-name="shiping" unicode="&#58893;" d="M875.6796666666667 721.766h-739.298c-23.363 0-42.427-19.064-42.427-42.427v-524.04c0-23.291999999999998 19.064-42.429 42.427-42.429h480.647l68.37099999999998-93.742c10.93-15.118 28.953-15.118 40.025 0l68.301 93.742h81.954c23.364 0 42.463 19.137 42.463 42.429v524.039c0.001 23.364-19.098 42.428-42.462 42.428zM737.5386666666666 491.495c32.754 0 59.235-26.517 59.235-59.341 0-32.754-26.481-59.198-59.235-59.198-32.753 0-59.27 26.443-59.27 59.198 0 32.824 26.517 59.341 59.27 59.341zM274.5236666666667 372.956c-32.752 0-59.234 26.443-59.234 59.198 0 32.825 26.481 59.341 59.234 59.341 32.718 0 59.27-26.517 59.27-59.341 0-32.755-26.553-59.198-59.27-59.198zM506.04866666666663 372.956c-32.824 0-59.376 26.443-59.376 59.198 0 32.825 26.553 59.341 59.376 59.341 32.753 0 59.234-26.517 59.234-59.341 0-32.755-26.481-59.198-59.234-59.198z"  horiz-adv-x="1024" />

    
    <glyph glyph-name="del" unicode="&#59011;" d="M128.608228 568.386366c0 0 0 24.024184 0 53.664277s23.399966 53.664277 52.292022 53.664277l662.198476 0c28.891033 0 52.292022-24.024184 52.292022-53.664277s0-53.664277 0-53.664277L128.608228 568.386366zM442.29794 747.289121l139.404119 0c19.219756 0 34.820075-71.5742 34.820075-71.5742l-209.105667 0C407.415444 675.715944 423.015762 747.289121 442.29794 747.289121zM790.806704-39.929867c0-59.281211-46.800956-107.360277-104.584045-107.360277l-348.509787 0c-57.720667 0-104.584045 48.079066-104.584045 107.360277l-69.702571 572.529134 697.080972 0L790.806704-39.929867zM407.415444 425.237966l-69.701548 0 0-465.167833 69.701548 0L407.415444 425.237966zM546.819563 425.237966l-69.701548 0 0-465.167833 69.701548 0L546.819563 425.237966zM686.223683 425.237966l-69.701548 0 0-465.167833 69.701548 0L686.223683 425.237966z"  horiz-adv-x="1024" />

    
    <glyph glyph-name="qian" unicode="&#58912;" d="M870.301 546.569c34.199-61.07 46.738-148.323 25.419-245.736-11.497-52.535-32.925-101.247-63.721-144.754-15.518-21.941-33.079-42.075-52.499-60.298L779.5 511.189l156.922 156.922c0.488 0.488 0.946 0.995 1.373 1.519 6.406 7.855 5.95 19.443-1.373 26.765l-56.568 56.569c-7.811 7.811-20.473 7.81-28.285 0L682.113 583.508 253.614 583.508c-11.046 0-20-8.954-20-20 0-0.814 0.063-1.613 0.158-2.402-0.163-1.028-0.271-2.074-0.271-3.147l0-461.943c-23.606 22.258-44.423 47.355-62.171 75.048-27.913 43.556-46.872 91.309-56.327 141.914-9.8 52.407-8.923 105.615 2.575 158.152 11.5 52.547 32.924 101.241 63.701 144.757 29.734 42.041 66.903 77.498 110.453 105.409 43.556 27.914 91.305 46.857 141.911 56.314 52.393 9.79 105.615 8.923 158.135-2.572 69.353-15.178 99.658-36.216 156.173-72.488l23.518 25.398c-51.393 39.556-96.906 64.407-172.274 80.902-57.085 12.493-114.919 13.423-171.884 2.787-55.027-10.274-106.903-30.869-154.246-61.188-47.332-30.337-87.703-68.884-120.039-114.586-33.455-47.316-56.754-100.252-69.247-157.336-12.494-57.089-13.436-114.918-2.803-171.883 10.278-55.028 30.871-106.917 61.207-154.233 30.336-47.336 68.88-87.72 114.584-120.039 47.312-33.47 100.249-56.77 157.338-69.263 57.084-12.493 114.914-13.435 171.881-2.787 55.011 10.278 106.916 30.866 154.235 61.208 47.332 30.32 87.715 68.864 120.035 114.568 33.47 47.312 56.77 100.249 69.264 157.338 23.173 105.886 10.064 201.065-33.276 279.497L870.301 546.569zM550.715 338.97400000000005l-56.568-28.284 28.284 56.568 343.28 343.28 28.284-28.284L550.715 338.97400000000005zM579.637-5.649000000000001c-52.396-9.802-105.607-8.938-158.138 2.559-52.535 11.497-101.247 32.925-144.755 63.716-1.217 0.861-2.41 1.75-3.617 2.623 0.238 1.234 0.372 2.505 0.372 3.808L273.499 543.508l368.612 0-150.26-150.26c-0.03-0.03-0.054-0.063-0.083-0.092-0.322-0.326-0.625-0.674-0.926-1.024-0.146-0.17-0.302-0.335-0.442-0.508-0.218-0.271-0.417-0.56-0.621-0.845-0.2-0.276-0.405-0.549-0.589-0.833-0.126-0.195-0.237-0.403-0.357-0.604-0.232-0.388-0.461-0.777-0.665-1.177-0.02-0.039-0.044-0.074-0.064-0.113l-56.568-113.138c-0.064-0.127-0.109-0.259-0.169-0.386-0.155-0.327-0.298-0.658-0.435-0.992-0.121-0.296-0.238-0.591-0.344-0.89-0.105-0.296-0.198-0.595-0.289-0.895-0.103-0.338-0.202-0.676-0.286-1.016-0.068-0.275-0.123-0.553-0.179-0.831-0.072-0.36-0.143-0.719-0.195-1.08-0.041-0.283-0.068-0.568-0.097-0.854-0.035-0.35-0.07-0.7-0.087-1.05-0.015-0.316-0.014-0.633-0.014-0.95s-0.001-0.634 0.014-0.95c0.016-0.35 0.051-0.7 0.087-1.05 0.029-0.285 0.056-0.57 0.097-0.854 0.052-0.361 0.122-0.72 0.195-1.08 0.056-0.278 0.111-0.556 0.179-0.831 0.084-0.341 0.183-0.678 0.286-1.016 0.091-0.3 0.184-0.599 0.289-0.895 0.106-0.298 0.223-0.594 0.344-0.89 0.137-0.335 0.28-0.665 0.435-0.992 0.061-0.128 0.106-0.259 0.169-0.386 0.095-0.191 0.204-0.371 0.304-0.558 0.091-0.169 0.18-0.339 0.276-0.506 0.284-0.492 0.581-0.973 0.9-1.432 0.037-0.054 0.08-0.104 0.117-0.157 0.302-0.425 0.62-0.833 0.95-1.229 0.109-0.131 0.222-0.258 0.335-0.387 0.308-0.35 0.627-0.688 0.956-1.013 0.09-0.089 0.177-0.182 0.269-0.27 0.427-0.405 0.869-0.789 1.326-1.152 0.093-0.074 0.189-0.142 0.284-0.214 0.407-0.312 0.824-0.606 1.252-0.884 0.103-0.067 0.203-0.136 0.308-0.201 0.518-0.323 1.048-0.625 1.591-0.898 0.026-0.013 0.049-0.03 0.076-0.043 0.237-0.119 0.477-0.224 0.717-0.332 0.106-0.048 0.209-0.101 0.316-0.146 0.406-0.175 0.816-0.336 1.228-0.482 0.004-0.001 0.008-0.003 0.012-0.004 0.411-0.146 0.824-0.275 1.239-0.392 0.057-0.016 0.115-0.03 0.172-0.045 0.367-0.1 0.734-0.19 1.103-0.269 0.076-0.016 0.152-0.031 0.228-0.046 0.355-0.071 0.711-0.133 1.067-0.184 0.084-0.012 0.168-0.025 0.253-0.036 0.364-0.048 0.728-0.085 1.092-0.113 0.073-0.006 0.146-0.014 0.219-0.019 0.428-0.028 0.857-0.045 1.284-0.045 0.005 0 0.01 0.001 0.016 0.001s0.01-0.001 0.016-0.001c0.427 0 0.856 0.018 1.285 0.045 0.072 0.005 0.143 0.013 0.215 0.018 0.365 0.028 0.731 0.065 1.096 0.113 0.083 0.011 0.166 0.024 0.249 0.036 0.358 0.052 0.715 0.114 1.072 0.185 0.074 0.015 0.149 0.029 0.223 0.045 0.374 0.08 0.746 0.17 1.117 0.272 0.052 0.014 0.104 0.026 0.155 0.041 0.838 0.237 1.67 0.528 2.489 0.882 0.093 0.04 0.182 0.086 0.274 0.127 0.252 0.113 0.504 0.225 0.753 0.349l113.138 56.568c0.039 0.02 0.074 0.044 0.114 0.064 0.4 0.203 0.789 0.433 1.177 0.665 0.201 0.12 0.408 0.231 0.604 0.357 0.287 0.185 0.562 0.393 0.841 0.595 0.281 0.202 0.567 0.399 0.834 0.613 0.181 0.145 0.352 0.307 0.529 0.459 0.342 0.295 0.682 0.59 1.001 0.905 0.032 0.031 0.067 0.057 0.098 0.089L739.5 471.189l0-405.973c0-0.76 0.051-1.507 0.134-2.245-5.9-4.246-11.915-8.361-18.073-12.308C677.993 22.753000000000043 630.255 3.8079999999999927 579.637-5.649000000000001zM366.946 230.163m-23.013 0a23.013 23.013 0 1 1 46.026 0 23.013 23.013 0 1 1-46.026 0ZM366.946 339.828m-23.013 0a23.013 23.013 0 1 1 46.026 0 23.013 23.013 0 1 1-46.026 0ZM366.946 449.492m-23.013 0a23.013 23.013 0 1 1 46.026 0 23.013 23.013 0 1 1-46.026 0Z"  horiz-adv-x="1024" />

    
    <glyph glyph-name="jiantouxiangyou" unicode="&#58906;" d="M282.5334-110.299429C302.330734-133.071238 334.367305-133.071238 354.164638-110.299429L742.3094 333.336381C754.499877 347.37981 758.303305 366.34819 755.523877 384.292571 758.303305 402.285714 754.402353 421.400381 742.3094 435.297524L354.164638 879.030857C334.318543 901.656381 302.23321 901.656381 282.5334 879.030857 262.638543 856.454095 262.638543 819.638857 282.5334 797.062095L643.517781 384.292571 282.5334-28.330667C262.638543-51.053714 262.638543-87.673905 282.5334-110.299429L282.5334-110.299429Z"  horiz-adv-x="1024" />

    
    <glyph glyph-name="jisuanji" unicode="&#58891;" d="M956.12103 170.768571c0 102.477976-0.001023 426.826132-0.001023 529.062608 0 28.503171-11.620665 39.458687-39.529295 39.458687-150.720723 0-662.533458 0-813.125245 0-29.187763 0-39.455617-13.250792-39.455617-38.771025 0-101.694123 0-427.042049 0-529.750269 0-28.107151 10.956539-39.629579 39.455617-39.629579 105.688087 0 387.206786 0.478907 387.206786 0.478907l0-142.221142-90.50427 0 0-38.787398 219.795938 0 0 38.787398-90.50427 0L529.45965 131.617899c0 0 278.345426-0.528026 387.818723-0.528026C944.270121 131.090896 956.12103 143.351128 956.12103 170.768571zM102.797247 700.500421l814.536384 0 0-530.095124L102.797247 170.405297 102.797247 700.500421z"  horiz-adv-x="1024" />

    
    <glyph glyph-name="jing" unicode="&#58889;" d="M871.8059510251326 588.2174865323245l-32.39900966497293-122.03016822965323-118.73535368745259 0-25.07719957119373-122.09118331376804 131.18243084687717 0-30.26348172095399-121.96915314553841-127.2164503794135 0-52.0458667499471-244.06033645930646-117.02693133223742 0 49.239172880665066 244.06033645930646-141.37194989405324 0-50.09338405827265-244.06033645930646-117.02693133223742 0 48.99511254420577 244.06033645930646-119.34550452860083 0 26.297501253490275 121.96915314553841 120.44377604266771 0 23.91791297301203 122.09118331376804-128.3757369775952 0 29.592315795690908 122.03016822965323 130.0231442486955 0 46.73755443195719 243.26714036581367 119.28448944448598 0-46.188418674923746-243.26714036581367 141.37194989405324 0 47.89684103013889 243.26714036581367 118.18621793041913 0-46.73755443195719-243.26714036581367L871.8059510251326 588.2174865323245zM603.0345054993213 466.18731830267143l-143.62950800630185 0-25.07719957119373-122.09118331376804 143.08037224926838 0L603.0345054993213 466.18731830267143z"  horiz-adv-x="1024" />

    
    <glyph glyph-name="jianzhu" unicode="&#59075;" d="M661.742954-45.617711l-556.678572 0 0 807.388591c0 34.419927 28.001751 62.421678 62.421678 62.421678l431.835216 0c34.419927 0 62.421678-28.001751 62.421678-62.421678L661.742954-45.617711zM143.950018-6.732076l478.907301 0 0 768.502955c0 12.977569-10.55745 23.536043-23.536043 23.536043l-431.835216 0c-12.977569 0-23.536043-10.558473-23.536043-23.536043L143.950018-6.732076zM947.245384-45.617711 76.753593-45.617711c-10.737552 0-19.442818 8.705266-19.442818 19.442818s8.705266 19.442818 19.442818 19.442818l870.491791 0c10.737552 0 19.442818-8.705266 19.442818-19.442818S957.982936-45.617711 947.245384-45.617711zM210.464921 602.135112l130.983193 0 0-53.211922-130.983193 0 0 53.211922ZM422.971849 602.135112l130.983193 0 0-53.211922-130.983193 0 0 53.211922ZM210.464921 473.198531l130.983193 0 0-53.211922-130.983193 0 0 53.211922ZM422.971849 473.198531l130.983193 0 0-53.211922-130.983193 0 0 53.211922ZM210.464921 346.137671l130.983193 0 0-53.211922-130.983193 0 0 53.211922ZM422.971849 346.137671l130.983193 0 0-53.211922-130.983193 0 0 53.211922ZM210.464921 219.07681l130.983193 0 0-53.211922-130.983193 0 0 53.211922ZM422.971849 219.07681l130.983193 0 0-53.211922-130.983193 0 0 53.211922ZM929.849178-45.617711l-306.99186 0 0 689.708378 244.570181 0c34.419927 0 62.421678-28.001751 62.421678-62.421678L929.849178-45.617711zM661.742954-6.732076l229.220588 0 0 588.401064c0 12.977569-10.55745 23.536043-23.536043 23.536043l-205.684546 0L661.742954-6.732076zM700.200848 446.59257l58.325383 0 0-127.060861-58.325383 0 0 127.060861ZM799.968086 446.59257l58.325383 0 0-127.060861-58.325383 0 0 127.060861ZM700.200848 271.615397l58.325383 0 0-127.059837-58.325383 0 0 127.059837ZM799.968086 271.615397l58.325383 0 0-127.059837-58.325383 0 0 127.059837Z"  horiz-adv-x="1024" />

    
    <glyph glyph-name="icon5" unicode="&#58880;" d="M346.278119 599.874629 164.703691 599.874629l0 0c-8.858762 0-16.090467-7.231705-16.090467-16.031115 0-8.859785 7.231705-16.092513 16.090467-16.092513l0 0 181.574429 0 0 0c8.79941 0 16.031115 7.231705 16.031115 16.092513C362.309234 592.642924 355.077529 599.874629 346.278119 599.874629L346.278119 599.874629zM346.278119 528.04058 164.703691 528.04058l0 0c-8.858762 0-16.090467-7.1744-16.090467-16.031115 0-8.921183 7.231705-16.152888 16.090467-16.152888l0 0 181.574429 0 0 0c8.79941 0 16.031115 7.231705 16.031115 16.152888C362.309234 520.866181 355.077529 528.04058 346.278119 528.04058L346.278119 528.04058zM850.686211 317.055309c16.448624-16.330944 37.783535-24.648376 59.299571-24.648376 21.512966 0 42.964534 8.196683 59.416228 24.586978 16.393365 16.452717 24.588001 37.968753 24.588001 59.420321 0 21.395286-8.195659 42.968627-24.588001 59.359946L846.82937 558.413332c13.195533 29.287023 20.73116 61.766762 20.73116 95.998401 0 129.98854-105.763812 235.449453-235.634672 235.449453-129.805368 0-235.387032-105.460914-235.387032-235.449453 0-129.807415 105.581664-235.449453 235.387032-235.449453 34.289967 0 66.774823 7.531534 96.182596 20.791535L850.686211 317.055309zM478.797295 654.411733c0 84.488253 68.702732 153.130609 153.128563 153.130609 84.491323 0 153.432485-68.642356 153.432485-153.130609 0-84.427878-68.940139-153.190985-153.432485-153.190985C547.500027 501.221772 478.797295 569.983855 478.797295 654.411733zM675.197384 359.420185c-15.066137 0-27.240411-12.171204-27.240411-27.359115l0-175.909405c0-35.31532-28.805046-64.119343-64.180741-64.119343L364.720144 92.032322 364.720144 244.800681c0 65.38415-53.153594 118.659517-118.538767 118.659517L87.505471 363.460198 87.505471 710.818417c0 35.313274 28.807093 64.059991 64.24214 64.059991L339.10679 774.878408c15.124466 0 27.41949 12.294001 27.41949 27.360138 0 15.125489-12.296047 27.359115-27.41949 27.359115L151.747611 829.597661c-65.626673 0-118.899994-53.273321-118.899994-118.779244l0-377.431142c0-7.294127 2.832512-14.282285 8.015557-19.346627l269.800819-268.713045c5.182023-5.064342 12.0525-7.955182 19.284205-7.955182l253.829056 0c65.566298 0 118.780267 53.212946 118.780267 118.779244L702.557522 332.061071C702.557522 347.250004 690.382225 359.420185 675.197384 359.420185zM310.601572 244.800681l0-122.274858L123.062292 309.341626l123.119085 0C281.675776 309.341626 310.601572 280.414807 310.601572 244.800681z"  horiz-adv-x="1024" />

    
    <glyph glyph-name="arrow-left-copy-copy" unicode="&#58886;" d="M253.248 886.061c0 0 570.857-438.34 570.857-438.34 39.678-30.463 39.678-96.508 0-126.971 0 0-570.857-438.34-570.857-438.34-36.777-28.244-82.77 7.082-82.77 63.571 0 0 0 876.595 0 876.595 0 56.403 45.993 91.73 82.77 63.485 0 0 0 0 0 0z"  horiz-adv-x="1024" />

    
    <glyph glyph-name="bianji" unicode="&#58927;" d="M809.65625029 360.76478437000003L809.65625029 65.28604278C809.65625029 67.13449160000005 811.07606006 68.55882334 812.52376631 68.55882334L230.22623428 68.55882334C231.76081602 68.55882334 233.09375029 67.21448438000004 233.09375029 65.66250907999995L233.09375029 653.80807852C233.09375029 652.24159424 231.78563193 650.91176513 229.86231875 650.91176513L522.46431494 650.91176513C548.99987187 650.91176513 570.51119023 672.6391221700001 570.51119023 699.44117666 570.51119023 726.24323028 548.99987187 747.97058818 522.46431494 747.97058818L229.86231875 747.97058818C178.5748792 747.97058818 136.99999971 705.70566621 136.99999971 653.80807852L136.99999971 65.66250907999995C136.99999971 13.578362109999944 178.72134717-28.499999709999997 230.22623428-28.499999709999997L812.52376631-28.499999709999997C864.00119375-28.499999709999997 905.75 13.381824609999967 905.75 65.28604278L905.75 360.76478437000003C905.75 387.56683887 884.23868164 409.2941959 857.70312471 409.2941959 831.16756778 409.2941959 809.65625029 387.56683887 809.65625029 360.76478437000003L809.65625029 360.76478437000003ZM884.67192705 729.15140713L884.67192705 729.15140713C884.59321661 729.23090771 884.75026221 729.23053067 884.74768789 729.22793086L529.57361006 370.48682432C529.56697783 370.48012529000005 529.56701387 370.64653301 529.64937354 370.56334717000004 529.72808223 370.48384658 529.57103574 370.48422363 529.57361006 370.48682432L884.74768789 729.22793086C884.75432012 729.2346290099999 884.75428408 729.06822129 884.67192705 729.15140713L884.67192705 729.15140713ZM918.64619756 763.4668831L918.64619756 763.4668831C937.54048467 744.38284013 937.44358789 713.82210615 918.7219584 694.91245401L563.54788057 336.17134658C544.70313653 317.13734589 514.43857286 317.29595596 495.67510039 336.24787118999996 476.78081416 355.33191416 476.87771006 385.89264903 495.59933955 404.80230029L850.77341739 763.54340683C869.61816143 782.5774084 899.88272597 782.41879746 918.64619756 763.4668831L918.64619756 763.4668831Z"  horiz-adv-x="1024" />

    
    <glyph glyph-name="xiaoxi" unicode="&#59042;" d="M921.80766293 94.48675627c0-20.13320853-17.9250496-37.0464128-39.2698528-37.0464128L141.46546453 57.44034239999996c-21.3448032 0-39.27531093 16.91320533-39.27531093 37.0464128 0 8.0511008 3.4132032 16.10765867 7.68653013 22.55203093l0 0 0.84811627 0.8011808c1.7104224 2.4177312 3.41866133 4.02991573 5.9772 5.63773547l71.71984747 67.64954453L188.42184747 458.49341653c0 146.57019307 108.4300704 264.94952853 251.8621248 297.1637536l0 29.79649387c0 39.45977813 29.0258752 74.0884608 70.860816 74.0884608 41.83930667 0 70.86409067-34.6286816 70.86409066-74.0884608l0-29.79649387c143.4320544-32.21422507 251.8621248-151.4001984 251.8621248-297.1637536l0-267.36616853 71.7143904-67.64954453c2.56399573-1.60672747 4.27332693-3.2200032 5.9782912-5.63773547l0.85357334-0.8011808 0 0C918.39555093 110.59441387000004 921.80766293 102.53785600000003 921.80766293 94.48675627L921.80766293 94.48675627zM740.8096288 458.49341653c0 118.37933547-104.15783573 215.82646507-228.81017493 215.82646507-124.64688107 0-228.80908267-97.4460384-228.80908267-215.82646507l0-312.4647744 456.764592 0L739.9549632 458.49341653 740.8096288 458.49341653zM511.99945387-91.54212480000001c-55.4910304 0-94.76743147 36.24086613-94.76743147 89.38948053l189.534864 0C606.7668864-54.494619729999954 567.4970336-91.54212480000001 511.99945387-91.54212480000001L511.99945387-91.54212480000001zM511.99945387-91.54212480000001"  horiz-adv-x="1024" />

    
    <glyph glyph-name="pinglun-copy" unicode="&#58924;" d="M511.999 48.117c-28.735 0-56.729 2.604-83.97 7.1l-196.797-119.402v198.778c-102.614 72.052-168.46 182.518-168.46 306.582 0 217.079 201.13 393.058 449.228 393.058 248.084 0 449.228-175.98 449.228-393.058-0.001-217.091-201.145-393.057-449.229-393.057zM511.999 778.082c-217.087 0-393.074-150.852-393.074-336.907 0-114.166 66.421-214.898 167.762-275.821l-1.768-130.234 132.172 79.456c30.449-6.498 62.117-10.309 94.91-10.309 217.101 0 393.073 150.825 393.073 336.907 0 186.057-175.972 336.908-393.074 336.908zM736.614 385.023c-31.012 0-56.154 25.128-56.154 56.151 0 31.010 25.143 56.152 56.154 56.152s56.154-25.142 56.154-56.152c0-31.023-25.144-56.151-56.154-56.151zM511.999 385.023c-31.011 0-56.153 25.128-56.153 56.151 0 31.010 25.143 56.152 56.153 56.152 31.012 0 56.154-25.142 56.154-56.152 0-31.023-25.143-56.151-56.154-56.151zM287.386 385.023c-31.011 0-56.153 25.128-56.153 56.151 0 31.010 25.143 56.152 56.153 56.152s56.153-25.142 56.153-56.152c0-31.023-25.143-56.151-56.153-56.151z"  horiz-adv-x="1024" />

    
    <glyph glyph-name="shuaxin1" unicode="&#58926;" d="M698.879266 118.027c-56.825-40.33-123.34-60.55-191.357-59.625-8.99 0.095-17.93 0.575-26.767 1.35-3.597 0.345-7.19 0.95-10.84 1.395-6.94 0.945-13.88 1.895-20.622 3.22-4.195 0.805-8.292 1.875-12.385 2.845-6.642 1.575-13.232 3.175-19.727 5.125-3.095 0.97-6.14 2.095-9.237 3.145-7.44 2.52-14.882 5.135-22.122 8.21-1.647 0.675-3.245 1.445-4.845 2.2-8.487 3.77-16.827 7.71-24.92 12.16-0.397 0.195-0.698 0.37-1.098 0.57-27.367 15.21-52.385 34.205-74.357 56.405-0.348 0.355-0.7 0.75-1.048 1.15-6.842 6.915-13.332 14.18-19.525 21.725-1.298 1.62-2.547 3.34-3.845 4.985-44.697 56.61-71.662 128.245-71.662 206.162l75.805 0c1.95 0 3.845 1.047 4.848 2.895 0.997 1.827 0.85 3.997-0.253 5.62l-127.39 193.477c-0.997 1.5-2.688 2.5-4.61 2.5-1.895 0-3.592-1-4.59-2.5L0.936266 397.591c-1.075-1.647-1.25-3.795-0.25-5.645 0.997-1.845 2.897-2.895 4.845-2.895l75.807 0c0-91.605 28.212-176.525 76.117-246.734 0.6-0.97 0.997-2.02 1.648-2.995 4.992-7.195 10.485-13.805 15.83-20.6 1.947-2.57 3.845-5.21 5.892-7.74 7.84-9.635 16.18-18.675 24.72-27.54 0.847-0.87 1.597-1.745 2.395-2.52 28.767-29.16 61.277-53.73 96.682-73.35 0.9-0.585 1.797-1.13 2.795-1.655 10.188-5.545 20.675-10.56 31.312-15.3 2.645-1.15 5.192-2.425 7.887-3.57 9.09-3.8 18.427-7.145 27.817-10.335 4.443-1.53 8.84-3.08 13.335-4.475 8.237-2.475 16.63-4.515 25.065-6.57 5.645-1.325 11.19-2.745 16.932-3.845 2.342-0.495 4.59-1.22 6.937-1.595 7.992-1.43 15.982-2.225 23.972-3.22 2.895-0.325 5.742-0.82 8.587-1.15 14.385-1.42 28.665-2.375 42.947-2.375 87.447 0 172.737 27.075 245.902 78.98 23.32 16.58 29.01 49.105 12.675 72.755C754.419266 128.887 722.199266 134.607 698.879266 118.027M941.484266 389.049c-0.045 91.335-28.065 176.075-75.755 246.137-0.705 1.2-1.195 2.422-1.95 3.52-5.945 8.565-12.39 16.555-18.825 24.57-0.75 0.975-1.45 1.997-2.245 2.945-43.65 53.605-98.435 95.027-160.555 122.095-1.7 0.75-3.4 1.597-5.1 2.347-9.935 4.117-20.065 7.762-30.255 11.235-3.695 1.223-7.345 2.572-11.09 3.695-8.885 2.722-17.92 4.942-27.015 7.065-5.04 1.175-10.04 2.472-15.125 3.472-2.555 0.5-4.895 1.247-7.395 1.695-6.79 1.202-13.635 1.728-20.425 2.6-4.7 0.597-9.345 1.347-14.09 1.847-11.43 1.072-22.77 1.522-34.105 1.722-2.045 0-4.095 0.325-6.142 0.325-0.348 0-0.7-0.1-1.095-0.125-87.292-0.075-172.437-26.765-245.499-78.6-23.37-16.527-29.062-49.11-12.73-72.755 16.327-23.645 48.587-29.39 71.91-12.81 56.43 40.025 122.297 60.275 189.812 59.672 9.74-0.072 19.28-0.548 28.715-1.445 2.95-0.348 5.795-0.775 8.69-1.15 7.795-0.95 15.485-2.072 23.07-3.595 3.35-0.647 6.69-1.525 9.935-2.272 7.445-1.695 14.895-3.52 22.185-5.742 2.29-0.747 4.54-1.572 6.83-2.345 8.34-2.75 16.485-5.717 24.52-9.09 0.81-0.348 1.655-0.772 2.45-1.097 48.09-20.95 90.29-53.207 123.205-93.53 0.19-0.253 0.395-0.575 0.59-0.8 46.345-57.102 74.26-130.107 74.26-209.579l-75.81 0c-1.94 0-3.845-1.048-4.84-2.895-1-1.845-0.855-3.997 0.255-5.645l127.43-193.454c0.96-1.495 2.66-2.465 4.6-2.465 1.895 0 3.595 0.97 4.595 2.465l127.345 193.454c1.095 1.648 1.245 3.8 0.25 5.645-1.005 1.847-2.895 2.895-4.85 2.895l-75.75 0L941.485266 389.049z"  horiz-adv-x="1025" />

    
    <glyph glyph-name="kuaijicongye" unicode="&#58962;" d="M669.061 729.446h-483.727c-12.81 0-20.49-10.25-20.49-20.5s7.68-20.5 20.49-20.5h483.727c12.81 0 20.49 10.25 20.49 20.5s-10.24 20.5-20.49 20.5v0zM653.691 575.836c0 10.24-10.199 20.49-20.439 20.49h-455.598c-10.25 0-20.439-10.25-20.439-20.49 0-10.25 10.189-20.5 20.439-20.5h458.158c10.25 0 17.879 7.752 17.879 20.5v0zM177.654 450.468c-10.25 0-20.439-10.25-20.439-20.5s10.189-20.49 20.439-20.49h294.359c10.25 0 20.449 10.24 20.449 20.49s-10.199 20.5-20.449 20.5h-294.359zM405.453 307.097h-230.359c-10.25 0-20.439-10.26-20.439-20.439 0-10.24 10.189-20.5 20.439-20.5h230.359c10.25 0 20.49 10.26 20.49 20.5-0 10.179-7.68 20.439-20.49 20.439v0zM82.975 63.979v785.715c0 2.56 2.56 7.69 7.68 7.69h639.836c2.56 0 7.69-2.56 7.69-7.69v-378.788h40.929l-0 378.788c0 25.62-20.439 46.121-46.060 46.121l-639.836-0c-30.74 2.499-51.18-20.5-51.18-46.121v-788.265c0-25.631 20.439-46.070 46.060-46.070h307.108v40.94l-307.108-0c-2.56 0-5.12 2.56-5.12 7.68v0zM820.050-128h-2.56c-12.759 0-22.999 7.68-28.119 17.94l-81.94 148.419-12.749-0-79.37-145.859c-5.12-12.82-17.94-17.94-30.679-17.94h-2.56c-12.82 2.56-25.631 10.26-30.761 23.060l-22.999 61.44-66.55-15.38c-12.81-2.56-28.129 2.56-35.82 12.82-7.68 10.24-10.24 25.559-2.56 38.359l92.129 168.939c-10.26 23.060-12.82 48.62-12.82 74.24 0 110.059 89.62 199.618 199.618 199.618 53.801 0 104.991-20.5 143.36-58.88 38.38-38.38 58.87-89.559 58.87-140.739 0-25.62-5.12-48.681-12.81-71.68l92.119-171.499c7.69-12.8 5.13-28.119-2.56-38.359-7.69-10.26-22.999-15.38-35.809-12.82l-66.56 15.38-25.559-64c-5.13-12.82-17.93-23.060-33.311-23.060v0 0zM730.491 79.36l89.559-163.799 33.311 89.559 94.679-23.060-97.249 181.739 5.13 7.68c10.25 20.439 12.749 43.5 15.309 64 0 43.5-15.309 84.439-46.060 115.179-30.679 30.689-71.619 48.62-115.179 48.62-89.559 0-161.239-71.68-163.799-161.239 0-23.060 5.12-46.121 15.38-66.56l5.12-7.68-99.809-179.179 94.689 20.5 30.74-89.559 89.559 163.799 17.94-2.56h17.869l12.81 2.56zM702.31 48.619v0c-53.688 0-102.379 20.5-138.179 58.859-35.82 35.82-56.32 86.999-56.32 138.179 0 107.499 86.999 194.56 194.498 194.56 53.801 0 102.42-20.5 138.24-58.87 35.809-35.809 56.299-87.009 56.299-138.189 0-107.479-87.050-194.539-194.539-194.539v0zM702.31 399.278c-86.999 0-156.119-69.12-156.119-156.119 0-41.001 15.38-81.92 46.121-110.059 30.689-30.74 69.059-46.121 109.998-46.121v0c87.060 0 156.18 69.12 156.18 156.18 0 40.94-15.38 81.879-46.131 109.998-28.119 30.751-66.488 46.121-110.049 46.121v0zM702.31 399.278z"  horiz-adv-x="1024" />

    
    <glyph glyph-name="yiyaoxiang" unicode="&#59473;" d="M923.392-61.184 100.608-61.184C45.056-61.184 0-15.872 0 39.424L0 512.256c0 55.552 45.056 100.608 100.608 100.608l822.784 0c55.552 0 100.608-45.056 100.608-100.608l0-472.832C1024-15.872 978.944-61.184 923.392-61.184zM100.608 566.528c-29.952 0-54.272-24.32-54.272-54.272l0-472.832c0-29.952 24.32-54.272 54.272-54.272l822.784 0c29.952 0 54.272 24.32 54.272 54.272L977.664 512.256c0 29.952-24.32 54.272-54.272 54.272L100.608 566.528zM794.88 566.528 229.12 566.528c-12.8 0-23.296 10.496-23.296 23.296L205.824 774.912c0 29.952 24.32 54.272 54.272 54.272l504.064 0c29.952 0 54.272-24.32 54.272-54.272l0-185.088C818.176 577.024 807.68 566.528 794.88 566.528zM252.16 613.12l519.424 0L771.584 774.912c0 4.096-3.584 7.68-7.68 7.68L260.096 782.592c-4.096 0-7.68-3.584-7.68-7.68L252.416 613.12zM576.512 43.52l-129.024 0c-11.52 0-19.968 11.264-19.968 22.784L427.52 189.44l-119.552 0c-11.52 0-21.248 9.984-21.248 21.248l0 131.584c0 11.52 9.984 18.688 21.248 18.688L427.52 360.96l0 123.392c0 11.52 8.448 19.968 19.968 19.968l129.024 0c11.52 0 19.968-8.704 19.968-19.968L596.48 360.96l119.552 0c11.52 0 21.248-7.168 21.248-18.688l0-131.584c0-11.52-9.984-21.248-21.248-21.248L596.48 189.44l0-123.136C596.48 54.784 588.032 43.52 576.512 43.52zM468.48 84.48l87.04 0 0 126.208c0 11.52 9.728 19.712 20.992 19.712L693.76 230.4l0 89.6-117.248 0c-11.52 0-20.992 11.008-20.992 22.272L555.52 463.36l-87.04 0 0-121.088c0-11.52-9.728-22.272-20.992-22.272L327.68 320l0-89.6 119.808 0c11.52 0 20.992-8.192 20.992-19.712L468.48 84.48z"  horiz-adv-x="1024" />

    
    <glyph glyph-name="shoucang" unicode="&#59049;" d="M958.0625 506.375c0 148.7125-116.625 269.7125-260.0625 269.7125-70.6875 0-137.75-30.625-186.125-82.5875-48.3375 52.0625-115.375 82.65-186.0625 82.65-143.275 0-259.9-121-259.9-269.75 0-4.875 0.4-9.4 0.8375-12.9625-0.0625-1.2875-0.15-2.4125-0.15-3.65 0-26.375 6.375-55.275 18.9625-86.0875 0.4-1.125 0.8125-2.1625 1.2125-3.2125 79.25-190.0875 384.15-408.65 397.125-418.5875 8.025-6.25 17.65-9.1875 27.1875-9.1875 9.8125 0 19.5 3.125 27.5875 9.4375 11.025 8.6875 271.125 195.875 374.375 373.025 3.9375 6 6.8125 11.75 9.5 16.8375 0.75 1.5625 1.5 3.125 2.3125 4.6875l0.375 0.6875c0.3125 0.6875 0.6875 1.2875 1.0625 1.875 6.3125 12.0625 11.125 23.1875 15.125 34.0875 10.75 28.0625 16.0625 53.0625 16.0625 76.5 0 1.7125-0.1875 3.4-0.3125 4.7125C957.5 497.375 958.0625 501.5375 958.0625 506.375zM886 501.8125c0-19.65-4.3125-40.625-13.4375-64.15-3.3125-9.2125-7.4375-18.625-12.5625-28.6875-0.4375-0.5625-0.75-1.0875-0.9375-1.5625l-0.375-0.625c-0.6875-1.275-1.25-2.5625-2-3.875-2.1875-4.3125-4.5625-9.0875-7.9375-14.125C762.0625 239.875 543.625 64.375 534.3125 57.125c-6.8125-5.375-14.9625-7.9375-23.1875-7.9375-8.0625 0-16.15 2.5625-22.8375 7.6875-10.9375 8.4375-263.9375 213.3125-330.5 373.0625-0.3125 0.8375-0.65 1.7125-1 2.625-10.5 25.8125-15.875 43.6875-15.875 65.7125 0 1.0625 0 2.0875 0.0875 3.0875-0.2875 3.0625-0.7125 6.775-0.7125 10.9625 0 124.9375 97.125 201.625 215.3125 184.1875 58.6875-8.5875 115.65-50.125 156.3375-93.775 40.525 43.65 97.5 85.1875 156.25 93.775 118.3125 17.4375 218.4375-55.8125 218.4375-180.75 0-4.025-0.5-7.5-0.75-10.025C885.875 504.625 886 503.3125 886 501.8125z"  horiz-adv-x="1024" />

    
    <glyph glyph-name="liulanliang" unicode="&#59092;" d="M511.9617962666667 77.0343370666667c-263.1026656 0-476.4513664 296.88650666666666-476.4513664 306.9700288 0 11.321314133333335 213.34869973333335 306.9602048 476.4513664 306.9602048 264.44415253333335 0 480.5227605333333-309.47289920000003 476.4721045333333-306.9602048C985.6832543999999 386.5225184 776.4103146666666 77.0343370666667 511.9617962666667 77.0343370666667L511.9617962666667 77.0343370666667zM510.6639712 592.8330538666667c-111.46669759999999 0-201.35937173333332-90.6021664-201.35937173333332-203.821856 0-111.94369493333333 89.8861248-203.7934762666667 201.35937173333332-203.7934762666667 111.41212159999999 0 202.65064746666667 91.84978133333334 202.65064746666667 203.7934762666667C713.3146186666667 500.9832736 622.0760928 592.8330538666667 510.6639712 592.8330538666667L510.6639712 592.8330538666667zM510.6639712 298.43632c-52.343066666666665 0-95.31428693333334 44.054013866666665-95.31428693333334 96.8904512 0 52.8091488 42.9712192 95.62100586666666 95.31428693333334 95.62100586666666 52.28849066666667 0 95.25971093333332-42.812948266666666 95.25971093333332-95.62100586666666C605.9236821333334 342.48924266666666 562.9535541333333 298.43632 510.6639712 298.43632L510.6639712 298.43632zM510.6639712 298.43632"  horiz-adv-x="1024" />

    
    <glyph glyph-name="more" unicode="&#58894;" d="M121.7444 504.2432c-65.493 0-118.5894-53.0729-118.5894-118.5894 0-65.493 53.0964-118.5659 118.5894-118.5659s118.5894 53.0729 118.5894 118.5659C240.3338 451.1693 187.2374 504.2432 121.7444 504.2432zM499.9741 504.2432c-65.493 0-118.5894-53.0729-118.5894-118.5894 0-65.493 53.0964-118.5659 118.5894-118.5659s118.5894 53.0729 118.5894 118.5659C618.5636 451.1693 565.4671 504.2432 499.9741 504.2432zM901.845 504.2432c-65.493 0-118.5905-53.0729-118.5905-118.5894 0-65.493 53.0975-118.5659 118.5905-118.5659s118.5894 53.0729 118.5894 118.5659C1020.4334 451.1693 967.338 504.2432 901.845 504.2432z"  horiz-adv-x="1024" />

    
    <glyph glyph-name="message" unicode="&#58892;" d="M1006.384765625 779.5078125L215.369140625 779.5078125C160.98681640625 779.5078125 116.4921875 735.01318359375 116.4921875 680.630859375L116.4921875 87.369140625C116.4921875 32.98681640625 160.98681640625-11.5078125 215.369140625-11.5078125L1006.384765625-11.5078125C1060.76708984375-11.5078125 1105.26171875 32.98681640625 1105.26171875 87.369140625L1105.26171875 680.630859375C1105.26171875 735.01318359375 1060.76708984375 779.5078125 1006.384765625 779.5078125L1006.384765625 779.5078125ZM1006.384765625 581.75390625L610.876953125 334.5615234375 215.369140625 581.75390625 215.369140625 680.630859375 610.876953125 433.4384765625 1006.384765625 680.630859375 1006.384765625 581.75390625 1006.384765625 581.75390625Z"  horiz-adv-x="1280" />

    
    <glyph glyph-name="dacha" unicode="&#59038;" d="M1004.68663-84.429669 536.155654 384.014326 1004.68663 852.430692c3.229554 3.229554 5.010107 7.520277 5.010107 12.0832 0 4.561899-1.779529 8.852622-5.0142 12.087293-3.224438 3.227508-7.518231 5.006014-12.08013 5.006014-4.562922 0-8.856715-1.778506-12.091386-5.010107L511.981069 408.184819 43.482839 876.592998c-3.229554 3.229554-7.522324 5.008061-12.084223 5.008061-4.564969 0-8.856715-1.778506-12.08627-5.008061-6.66377-6.662747-6.6607-17.506722 0-24.170492l468.49516-468.405109L19.30723-84.367247c-3.232624-3.227508-5.010107-7.522324-5.010107-12.084223 0-4.562922 1.778506-8.855692 5.008061-12.08627 3.234671-3.234671 7.52744-5.010107 12.090363-5.010107 4.564969 0 8.857738 1.774413 12.089339 5.010107l468.496184 468.38669 468.540186-468.448088c3.222391-3.230578 7.517207-5.006014 12.084223-5.006014 4.562922 0 8.850575 1.774413 12.081153 5.010107 3.234671 3.229554 5.0142 7.523347 5.0142 12.082176C1009.700831-91.951993 1007.921301-87.659223 1004.68663-84.429669z"  horiz-adv-x="1024" />

    
    <glyph glyph-name="tag" unicode="&#58918;" d="M921.5391732905028 401.093459233829L529.0934592338288 793.4386235303039C512.7038483213928 809.8282344427397 490.58290107761434 819.0788123810471 467.45645623184566 819.0788123810471l-303.25807676016603 0c-48.16333513531816 0-87.27719185272683-39.01330695720969-87.27719185272683-87.27719185272683l0-303.25807676016603c0-23.126444845768635 9.150028178108457-45.34794184974633 25.53963909054449-61.737552762182354l392.34516429647476-392.34516429647476c34.08636870745899-34.08636870745899 89.2881870567067-34.08636870745899 123.37455576416572 0l303.25807676016603 303.25807676016603C955.5249922377627 311.8052721771222 955.5249922377627 367.0070905263698 921.5391732905028 401.093459233829zM340.0599100597202 555.9400899402798c-27.450084534325374-27.450084534325374-72.09417806267872-27.450084534325374-99.5442625970041 0-27.450084534325374 27.450084534325374-27.450084534325374 72.09417806267872 0 99.5442625970041 27.450084534325374 27.450084534325374 72.09417806267872 27.450084534325374 99.5442625970041 0C367.5099945940455 628.0342680029586 367.5099945940455 583.4907242348042 340.0599100597202 555.9400899402798z"  horiz-adv-x="1024" />

    
    <glyph glyph-name="chakan" unicode="&#58956;" d="M86.34 835.255l555.284 0 135.005-135.01 0-158.215 60.75 0 0 183.42-0.045 0L666.783 895.998l-0.15-0.145L666.633 895.998 86.34 895.998 25.6 895.998l0-60.742 0-829.738 0-60.74 60.74 0 249.439 0 0 60.74L86.34 5.518 86.34 835.255zM222.049 670.826l379.114 0 0-60.742L222.049 610.084 222.049 670.826zM228.942 445.084l157.957 0 0-60.742L228.942 384.342 228.942 445.084zM228.942 217.602l114.877 0 0-60.75L228.942 156.852 228.942 217.602zM857.028 66.302c36.405 42.69 58.385 98.045 58.385 158.545 0 135.03-109.47 244.489-244.494 244.489-135.03 0-244.487-109.46-244.487-244.489 0-135.035 109.467-244.489 244.487-244.489 52.615 0 101.355 16.62 141.245 44.91l152.295-152.295 42.945 42.955L857.028 66.302zM670.918 33.507c-105.67 0-191.337 85.66-191.337 191.339 0 105.675 85.667 191.34 191.337 191.34 105.675 0 191.345-85.665 191.345-191.34C862.263 119.167 776.593 33.507 670.918 33.507z"  horiz-adv-x="1024" />

    
    <glyph glyph-name="gonggao" unicode="&#58885;" d="M620.48-46.688l0 63.264c185.952 40.736 309.92 183.36 309.92 367.424 0 185.12-127.936 332.608-309.92 367.424L620.48 814.688C830.496 784.16 992.416 603.968 992.416 384S830.496-16.16 620.48-46.688zM465.504 14.464 186.56 199.232 93.568 199.232c-34.24 0-61.984 27.584-61.984 61.6L31.584 507.2c0 34.016 27.744 61.6 61.984 61.6L186.56 568.8l278.944 184.768c34.24 0 61.984-27.584 61.984-61.6l0-615.904C527.488 42.048 499.744 14.464 465.504 14.464zM186.56 476.384c0 16.992-13.888 30.784-31.008 30.784L124.576 507.168c-17.12 0-31.008-13.792-31.008-30.784l0-184.768c0-17.024 13.888-30.784 31.008-30.784l31.008 0c17.12 0 31.008 13.792 31.008 30.784L186.592 476.384zM465.504 76.032l-216.96 134.72c0 62.752 0 323.168 0 346.464l216.96 134.72C465.504 654.432 465.504 110.688 465.504 76.032zM806.432 384c0-108.512-80.96-197.408-185.952-212.448l0 61.6c70.72 14.272 123.968 76.384 123.968 150.88 0 74.496-53.248 136.608-123.968 150.88L620.48 596.48C725.472 581.408 806.432 492.512 806.432 384z"  horiz-adv-x="1024" />

    
    <glyph glyph-name="ren" unicode="&#58915;" d="M1018.24 52.736c0-0.032 0.016-0.064 0.016-0.096 0-17.328-14.096-31.376-31.504-31.376H752.08c17.6 3.856 30.768 19.44 30.768 38.144v0.096h0.016s0 142.576-104.496 194.4c-44.688 22.16-47.648 17.936-69.84 23.184l0.624 61.76s-24.384 18.576-31.968 76.928c-15.28-4.4-20.32 17.856-21.2 32.016-0.848 13.696-8.848 56.464 9.76 52.624-3.808 28.544-6.56 54.304-5.2 67.952 4.672 47.888 50.96 97.92 122.24 101.568 83.856-3.648 117.072-53.664 121.744-101.52 1.328-13.664-1.648-39.424-5.456-67.936 18.64 3.792 10.544-38.896 9.632-52.592-0.832-14.192-6-36.352-21.216-31.984-7.632-58.304-32-76.752-32-76.752l0.56-61.68s15.44-8.784 80.576-35.68c65.152-26.912 44.72-6.784 97.776-33.072 83.872-41.616 83.872-155.984 83.872-155.984h-0.032zM545.664 263.68c71.632-29.616 49.152-7.456 107.488-36.384 92.192-45.712 92.192-171.44 92.192-171.44h-0.016c0-0.048 0.016-0.064 0.016-0.096 0-19.056-15.52-34.496-34.64-34.496H41.376c-19.12 0-34.624 15.44-34.624 34.496v0.096h-0.016s0 125.712 92.192 171.456c58.336 28.928 35.872 5.456 107.488 35.04 71.6 29.552 88.576 39.872 88.576 39.872l0.672 68.128s-26.816 20.448-35.136 84.56c-16.768-4.832-22.336 19.632-23.328 35.216-0.912 15.04-9.696 62.064 10.768 57.824-4.192 31.392-7.2 59.696-5.728 74.672 5.152 52.656 56 107.664 134.368 111.664 92.176-4 128.672-58.976 133.792-111.584 1.504-15.008-1.792-43.328-5.984-74.672 20.48 4.192 11.584-42.752 10.576-57.808-0.896-15.584-6.576-39.968-23.312-35.136-8.368-64.112-35.2-84.4-35.2-84.4l0.64-67.792s16.96-9.648 88.544-39.216"  horiz-adv-x="1024" />

    
    <glyph glyph-name="sousuo" unicode="&#58895;" d="M954.9687499999999 62.7421875a52.734375 52.734375 0 1 0-74.56640625-74.56640625l-149.18554687500003 149.1328125a51.46875000000001 51.46875000000001 0 0 0-12.498046874999998 22.201171875A357.96093750000006 357.96093750000006 0 1 0 776.990234375 225.796875a51.416015625 51.416015625 0 0 0 28.634765625000007-13.763671875zM470.498046875 695.1328125a263.671875 263.671875 0 1 1 263.671875-263.671875 263.671875 263.671875 0 0 1-263.671875 263.671875z"  horiz-adv-x="1088" />

    
    <glyph glyph-name="zhengfuhezuo" unicode="&#58898;" d="M937.61536 466.2784a20.30592 20.30592 0 0 1 20.31616 20.32128V567.86944c0 7.552-4.28544 13.8752-10.39872 17.37216l0.15872 0.28672-426.7008 243.85536-0.15872-0.28672c-2.97984 1.70496-6.24128 2.95936-9.92256 2.95936-3.69664 0-6.95296-1.2544-9.91744-2.95936l-0.1536 0.28672L74.12224 585.5232l0.1536-0.28672c-6.11328-3.49184-10.3936-9.81504-10.3936-17.37216v-81.26976a20.3008 20.3008 0 0 1 20.31616-20.31616h60.95872v-365.78304h-20.32128c-8.97024 0-16.34816-5.91872-19.0464-13.95712l-0.24064 0.0512L64.9216-35.328l0.24064-0.06656c-0.67584-2.02752-1.26976-4.1216-1.26976-6.35904a20.30592 20.30592 0 0 1 20.31616-20.31616h853.41184a20.31104 20.31104 0 0 1 20.31616 20.31616c0 2.23744-0.59904 4.33152-1.26976 6.35904l0.24064 0.06656-40.65792 121.92256-0.22016-0.05632c-2.70336 8.0384-10.08128 13.95712-19.05152 13.95712h-20.32128V466.28352h60.96384z m-426.7008 322.05312l350.18752-200.12032H160.72192l350.18752 200.12032z m371.4048-728.4736l27.09504-81.28512H112.39936l27.0848 81.28512H882.3296zM185.8048 466.28352h81.28v-365.78304H185.8048V466.2784z m121.92256 0h81.27488v-365.78304H307.72224V466.2784z m121.9072 0h162.56v-365.78304h-162.56V466.2784z m203.19744 0h81.27488v-365.78304h-81.27488V466.2784z m121.91744 0h81.27488v-365.78304H754.7392V466.2784zM104.5248 547.56352H917.2992v-40.64256H104.5248v40.64256z"  horiz-adv-x="1024" />

    
    <glyph glyph-name="zhuantilianxi" unicode="&#58925;" d="M292.4544 156.3648l355.328 361.472-181.7088 185.9072-365.824-366.3872-3.5328-22.2208 186.8288-159.5392 8.9088 0.768z m417.9456 424.96l126.3616 128.4608 8.2432 51.1488L709.4784 896l-54.272-2.9184-133.0176-133.12 188.2112-178.6368zM40.7552 64.9216L198.7584 133.12l-129.024 105.9328L16.2304 110.592 0 51.3024l40.7552 13.6192z m10.496-90.7776a51.1488 51.1488 0 0 1-50.9952-51.0464 51.2 51.2 0 0 1 50.9952-51.0976h921.7536a50.9952 50.9952 0 0 1 50.9952 51.0976 50.9952 50.9952 0 0 1-50.9952 51.0464H51.2512z m921.1904 127.8976a51.456 51.456 0 1 1 0 103.0656H461.2608c-28.4672 0-51.5072-23.1936-51.5072-51.7632 0-28.2624 23.04-51.3024 51.5072-51.3024h511.1808z"  horiz-adv-x="1024" />

    
    <glyph glyph-name="jiantou" unicode="&#59024;" d="M212.30062786463532 520.7830213894194h594.9126072664512l-297.43183813479845-297.43183813479845z"  horiz-adv-x="1024" />

    
    <glyph glyph-name="jiahao" unicode="&#58971;" d="M483.555556 355.555556H250.311111v56.888888h233.244445V645.688889h56.888888v-233.244445h233.244445v-56.888888H540.444444v-233.244445h-56.888888V355.555556zM512-128c284.444444 0 512 227.555556 512 512s-227.555556 512-512 512-512-227.555556-512-512 227.555556-512 512-512z"  horiz-adv-x="1024" />

    
    <glyph glyph-name="web-quit" unicode="&#59039;" d="M782 682.5000002929687c-25.49999970703125 20.99999970703125-63 18-83.99999970703125-7.5000005859375-20.99999970703125-25.49999970703125-18-63 7.49999970703125-83.99999970703125 67.5-56.99999970703126 105.00000029296875-139.5 105.00000029296875-226.50000029296874 0-163.50000029296874-133.49999970703126-297-297-297s-297 133.49999970703126-297 297c0 87.00000029296875 38.99999970703125 171 104.9999994140625 226.50000029296874 25.49999970703125 20.99999970703125 28.50000029296875 60.00000029296874 7.5000005859375 83.99999970703125-20.99999970703125 25.49999970703125-60.00000029296874 28.50000029296875-84.0000005859375 7.5000005859375-94.5-79.49999970703125-148.5-196.49999970703126-148.5-319.49999999999994 0-231.00000029296874 187.49999970703126-416.99999970703124 417.00000058593747-417.00000058593747s416.99999970703124 187.49999970703126 416.99999970703124 417.00000058593747c-1.50000029296875 124.49999970703124-55.50000029296875 240.00000029296874-148.5 319.49999999999994zM512 240c33.00000029296875 0 60.00000029296874 26.999999999999996 60.00000029296874 60.00000029296874V762c0 33.00000029296875-26.999999999999996 60.00000029296874-60.00000029296874 60.00000029296874s-60.00000029296874-26.999999999999996-60.00000029296874-60.00000029296874v-461.99999970703124c0-33.00000029296875 26.999999999999996-60.00000029296874 60.00000029296874-60.00000029296874z"  horiz-adv-x="1024" />

    
    <glyph glyph-name="xingbie" unicode="&#59754;" d="M455.48638 464.016405c-93.377714 0-169.346943-75.969229-169.346943-169.347966s75.969229-169.346943 169.346943-169.346943c93.378737 0 169.346943 75.968206 169.346943 169.346943s-75.968206 169.347966-169.346943 169.347966zM511.999488 829.394023c-245.984391 0-445.394023-199.409632-445.394023-445.394023s199.409632-445.394023 445.394023-445.394023 445.394023 199.409632 445.394023 445.394023-199.409632 445.394023-445.394023 445.394023z m282.185894-367.93486c0-14.128789-11.453866-25.582655-25.582655-25.582655s-25.582655 11.453866-25.582655 25.582655V568.006827L622.958626 438.136991c34.31862-39.934524 53.040007-90.261747 53.040007-143.468552 0-58.901505-22.937408-114.276696-64.585971-155.926282-41.649586-41.648562-97.024777-64.585971-155.926282-64.585971s-114.276696 22.937408-155.926282 64.585971c-41.649586 41.649586-64.586994 97.024777-64.586994 155.926282s22.937408 114.276696 64.586994 155.926282c41.649586 41.649586 97.024777 64.586994 155.926282 64.586994 47.354518 0 92.422969-14.836917 129.918955-42.293245l124.706233 134.895293H596.695472c-14.129812 0-25.582655 11.453866-25.582654 25.582655s11.452843 25.582655 25.582654 25.582655H768.63445a25.484418 25.484418 0 0 0 16.745382-6.269798 25.580608 25.580608 0 0 0 3.371794-3.548825 25.462928 25.462928 0 0 0 5.383614-14.166651c0.036839-0.586354 0.053212-1.171686 0.049119-1.757017v-171.747619z"  horiz-adv-x="1024" />

    
    <glyph glyph-name="jiantoushang2" unicode="&#58882;" d="M496.071 622.768l-438.278-431.027c-6.798-6.686-6.891-17.619-0.203-24.42 6.686-6.801 17.62-6.891 24.42-0.203l426.066 419.018 424.478-424.477c6.743-6.743 17.678-6.743 24.421 0 3.372 3.372 5.058 7.792 5.058 12.211s-1.687 8.84-5.058 12.211l-436.584 436.584c-6.705 6.705-17.56 6.75-24.32 0.102z"  horiz-adv-x="1024" />

    
    <glyph glyph-name="tag1" unicode="&#58983;" d="M262.4 601.6c-25.6-19.2-38.4-51.2-32-89.6 0-32 12.8-64 38.4-89.6 25.6-25.6 57.6-38.4 89.6-38.4 32 0 64 12.8 89.6 38.4 51.2 51.2 44.8 128 0 179.2-57.6 51.2-134.4 51.2-185.6 0zM409.6 512c0-12.8-6.4-32-19.2-38.4-19.2-25.6-51.2-25.6-76.8 0-25.6 25.6-25.6 57.6 0 83.2 12.8 12.8 25.6 19.2 38.4 19.2 12.8 0 32-6.4 44.8-19.2 6.4-12.8 12.8-32 12.8-44.8zM921.6 416l-339.2 345.6c-19.2 19.2-32 32-64 38.4h-396.8c-12.8 0-32-6.4-38.4-19.2-12.8-6.4-19.2-25.6-19.2-38.4l6.4-396.8c0-25.6 6.4-32 25.6-44.8l352-358.4c25.6-25.6 57.6-38.4 89.6-38.4s64 12.8 89.6 38.4l300.8 300.8c19.2 19.2 32 51.2 32 83.2 0 38.4-12.8 70.4-38.4 89.6zM883.2 288l-307.2-300.8c-12.8-12.8-25.6-19.2-38.4-19.2s-32 6.4-44.8 19.2l-339.2 345.6c-19.2 12.8-19.2 25.6-19.2 38.4l-6.4 339.2c0 6.4 0 12.8 6.4 19.2s12.8 6.4 19.2 6.4l339.2-6.4c12.8 0 25.6 0 44.8-12.8l345.6-345.6c19.2-25.6 19.2-57.6 0-83.2z"  horiz-adv-x="1024" />

    
    <glyph glyph-name="yuanquan" unicode="&#59037;" d="M512-119.827c-280.758 0-507.674 226.914-507.674 503.827 0 280.758 226.916 507.674 507.674 507.674 276.913 0 503.827-226.915 503.827-503.827 0-280.759-226.914-507.674-503.827-507.674zM512 853.213c-257.682 0-469.213-211.531-469.213-469.213s207.684-465.367 465.366-465.367 465.367 207.685 465.367 465.367-203.839 469.213-461.521 469.213z"  horiz-adv-x="1024" />

    
    <glyph glyph-name="zan" unicode="&#58917;" d="M882.242699 47.005476c0-54.025343-43.821977-97.846297-97.870856-97.846296H392.892513c-0.122796 0-0.24457 0.024559-0.392949 0.024559H271.140808c-0.194428 0-0.390902-0.024559-0.586353-0.024559H99.280969V487.444794h171.273486c3.057633 0 5.968933-0.587377 8.953911-0.880042 30.585538 88.082952 73.696319 210.151881 91.264405 250.474158 27.550418 63.345597 51.577599 83.92322 95.49679 92.976392 43.674621 8.979494 181.597602-55.101859 138.8767-224.978535a75279.77321 75279.77321 0 0 1-17.199697-68.656546H857.774473c54.048879 0 73.403654-43.820954 73.403654-97.894391L882.242699 47.005476zM246.086229 438.509366h-97.160682l-0.70915 0.024559V-1.929952h97.870856v0.048096h24.468225V433.641508l0.92916 4.158708c0.22001 0.611936-0.22001-0.611936 0 0-5.01726 1.688452-19.819355 0.70915-25.398409 0.70915z m587.221042 48.935428H527.462126l36.701827 146.829819c20.502922 90.260543-53.339729 144.553991-73.402631 146.805261-14.04485 1.565655-53.950642-5.603614-73.403653-48.958964-12.722741-28.357805-68.901115-184.070928-98.43265-266.428493 0.098237-0.92916 0.537235-1.736547 0.537235-2.69129v-464.884007h97.870855v-0.048095h367.013152c27.011136 0 48.935428 21.922245 48.935427 48.958964l48.933382 391.480353c0.027629 27.037742-21.896662 48.936451-48.907799 48.936452z"  horiz-adv-x="1024" />

    
    <glyph glyph-name="pinglun" unicode="&#58909;" d="M890.8085934753418-3.896809895833485H765.6743166809082c0.98876953125-0.6591796875 1.4282223815917967-0.98876953125 1.4282223815917967-0.98876953125-304.9804684753418 0-528.662109375-116.015625-528.662109375-116.015625V-4.885579427083485c0.10986300659179689 1.098632537841797 0.32958984375 1.9775390625 0.32958984375 3.0761716003417967-82.8369137878418 10.437011993408204-147.2167971496582 80.419921875-147.2167971496582 166.11328125v387.8173830871582C91.55322238159181 645.0655924479166 166.91943359375 720.4318036600748 259.86376953125 720.4318036600748h630.9448239440918C983.7529294128418 720.4318036600748 1059.119140625 645.0655924479166 1059.119140625 552.1212565104167v-387.8173830871582c-0.10986300659179689-92.8344729309082-75.3662112121582-168.2006833190918-168.31054714965822-168.2006833190918zM372.9130859375 408.85953748575855c-34.826660430908206 0-63.061523162841794-27.685546875-63.061523162841794-61.74316378784181 0-34.167480743408206 28.234863555908202-61.74316378784181 63.061523162841794-61.74316378784181s63.061523162841794 27.685546875 63.061523162841794 61.74316378784181c0 34.057616912841794-28.234863555908202 61.74316378784181-63.061523162841794 61.74316378784181z m218.1884765625 0c-34.167480743408206 0-61.74316378784181-27.685546875-61.74316378784181-61.74316378784181 0-34.167480743408206 27.685546875-61.74316378784181 61.74316378784181-61.74316378784181 34.167480743408206 0 61.74316378784181 27.685546875 61.74316378784181 61.74316378784181 0 34.057616912841794-27.685546875 61.74316378784181-61.74316378784181 61.74316378784181z m218.1884765625 0c-34.826660430908206 0-63.061523162841794-27.685546875-63.061523162841794-61.74316378784181 0-34.167480743408206 28.234863555908202-61.74316378784181 63.061523162841794-61.74316378784181s63.061523162841794 27.685546875 63.061523162841794 61.74316378784181c0 34.057616912841794-28.234863555908202 61.74316378784181-63.061523162841794 61.74316378784181z"  horiz-adv-x="1177" />

    
    <glyph glyph-name="dingwei" unicode="&#59022;" d="M247.316 243.375c-0.906 1.197 0.792-1.196 0 0zM511.715 830.844c-195.242 0-353.43-157.76-353.43-352.258 0-89.568 34.85-173.042 90.055-235.21l229.337-289.201c18.024-22.731 47.586-22.653 65.687 0l228.427 289.2c57.928 62.71 93.319 143.21 93.319 235.211-0.001 194.499-158.193 352.258-353.395 352.258z m0-528.773c-97.87 0-177.14 78.996-177.14 176.515 0 97.48 79.27 176.514 177.14 176.514 97.794 0 177.103-79.034 177.103-176.514-0.001-97.519-79.309-176.515-177.103-176.515z"  horiz-adv-x="1024" />

    
    <glyph glyph-name="ren1" unicode="&#59180;" d="M522.24 460.8c105.813333 0 191.146667 85.333333 191.146667 191.146667s-85.333333 191.146667-191.146667 191.146666c-105.813333 0-191.146667-85.333333-191.146667-191.146666s85.333333-191.146667 191.146667-191.146667z m-10.24-39.253333c-186.026667 0-339.626667-139.946667-372.053333-322.56C196.266667-1.706667 341.333333-75.093333 512-75.093333s315.733333 71.68 372.053333 174.08C851.626667 283.306667 698.026667 421.546667 512 421.546667z"  horiz-adv-x="1024" />

    
    <glyph glyph-name="riqi" unicode="&#58896;" d="M950.8-128H73.2C32.8-128 0-95.4 0-55V676.6c0 40.4 32.8 73.2 73.2 73.2h73.2v-144c0-40.4 32.8-73.2 73.2-73.2h73.2c40.4 0 73 32.6 73 73.2v144h292.6v-144c0-40.4 32.8-73.2 73.2-73.2h73.2c40.4 0 73.2 32.6 73.2 73.2v144h73c40.4 0 73.2-32.8 73.2-73.2v-731.6c-0.2-40.4-32.8-73-73.4-73z m0 585.2h-880v-509.8h880V457.2zM253.8 117.4c10.4 12.4 22.4 23.6 36.4 34s28.8 20.8 44.2 31.6c8 5.6 16.4 11.2 25.4 16.8 9 5.8 17.2 12 24.6 18.8 7.4 7 13.6 14.6 18.6 23.4 5 8.6 7.6 18.4 7.6 29.4 0 17.6-5.2 31.4-15.2 41.2-10.2 9.8-23.2 14.8-39 14.8-10.8 0-19.8-2.4-27.2-7.6-7.4-5-13.4-11.6-17.8-19.6-4.4-8.2-7.8-17-9.6-27-2-9.8-2.8-19.6-2.8-29.2h-70.4c-0.8 20.6 1.6 40 7.4 57.8 5.4 17.8 13.8 33.2 24.8 46.6 11 13.4 25 23.6 41.6 31 16.8 7.4 36 11 57.6 11 16.6 0 32.4-2.6 47.4-7.6 15-5.4 28.2-12.6 39.6-22.2 11.4-9.8 20.4-21.8 27.2-35.8 6.8-14.2 10-30 10-47.6 0-18.4-3-34-8.8-47.2-6-13-13.6-24.8-23.4-35-9.6-10.2-20.6-19.4-32.8-27.6-12.2-8.2-24.6-16.4-37-24.6-12.6-8-24.6-16.8-36.2-26.2-11.8-9.2-22-20.2-31-32.6h171.4v-63.2h-266c0 21.2 3 39.4 9 54.8 5.8 15.8 14 29.6 24.4 41.8z m474.6 265.8v-218h48.2v-60.4h-48.2v-84h-69.8v84h-153.2V172l157.4 211.2h65.6z m-70-92.2h-1.6l-93.6-125.8h95.4v125.8h-0.2z m108 314.4c-20.6 0-37.2 16.8-37.2 37.4v216c0 20.6 16.6 37.2 37.2 37.2s37.4-16.6 37.4-37.2v-216c-0.2-20.6-16.8-37.4-37.4-37.4z m-512 0c-20.6 0-37.4 16.8-37.4 37.4v216c0 20.6 16.8 37.2 37.4 37.2s37.4-16.6 37.4-37.2v-216c0-20.6-16.8-37.4-37.4-37.4z"  horiz-adv-x="1024" />

    
    <glyph glyph-name="xiazai" unicode="&#58887;" d="M898.56 420.864v-308.736c0-55.296-44.544-99.84-99.84-99.84H217.6c-55.296 0-99.84 44.544-99.84 99.84V569.344c0 55.296 44.544 99.84 99.84 99.84h71.168v46.592H217.6c-80.896 0-146.432-65.536-146.432-146.432v-457.216c0-80.896 65.536-146.432 146.432-146.432H798.72c80.896 0 146.432 65.536 146.432 146.432V429.056c-9.216-6.144-38.912-10.24-46.592-8.192zM278.016 437.76l214.528-214.528c4.608-4.608 10.24-6.656 16.384-6.656 6.144 0 12.288 2.56 16.384 6.656l216.576 216.576c9.216 9.216 9.216 23.552 0 32.768-9.216 9.216-23.552 9.216-32.768 0l-178.176-178.176V774.144c0 12.8-10.24 23.04-23.04 23.04s-23.04-10.24-23.04-23.04v-477.696l-173.568 174.08c-9.216 9.216-23.552 9.216-32.768 0-9.216-9.216-9.216-24.064-0.512-32.768zM117.76 420.864c-8.192-2.048-37.376 2.048-46.592 8.192V112.64c0-80.896 65.536-146.432 146.432-146.432H798.72c80.896 0 146.432 65.536 146.432 146.432V569.344c0 80.896-65.536 146.432-146.432 146.432h-71.168v-46.592H798.72c55.296 0 99.84-44.544 99.84-99.84v-457.216c0-55.296-44.544-99.84-99.84-99.84H217.6c-55.296 0-99.84 44.544-99.84 99.84V420.864z"  horiz-adv-x="1024" />

    
    <glyph glyph-name="shoucang1" unicode="&#58899;" d="M707.584 802.816c-77.312 0-148.992-38.912-196.608-102.912-47.104 64-119.296 102.912-196.608 102.912-139.264 0-252.416-123.904-252.416-275.968 0-90.624 40.448-154.624 73.216-205.824 94.72-148.992 333.312-333.824 343.552-341.504 9.728-7.68 20.992-11.264 32.256-11.264s22.528 3.584 32.256 11.264c10.24 7.68 248.32 193.024 343.552 341.504 32.768 51.2 73.216 115.2 73.216 205.824 0 152.064-113.152 275.968-252.416 275.968z"  horiz-adv-x="1024" />

    
    <glyph glyph-name="lianxi" unicode="&#59079;" d="M910.222222 839.111111H284.444444c-34.133333 0-56.888889-22.755556-56.888888-56.888889v-625.777778c0-34.133333 22.755556-56.888889 56.888888-56.888888h625.777778c34.133333 0 56.888889 22.755556 56.888889 56.888888V782.222222c0 34.133333-22.755556 56.888889-56.888889 56.888889z m-56.888889-512H341.333333V440.888889h512v-113.777778z m0 227.555556H341.333333V668.444444h512v-113.777777zM170.666667 42.666667V668.444444H56.888889v-625.777777c0-62.577778 51.2-113.777778 113.777778-113.777778h625.777777v113.777778H170.666667z"  horiz-adv-x="1024" />

    
    <glyph glyph-name="shouye" unicode="&#59020;" d="M958.27368406 411.61263187L527.36 801.37263188a46.96421062 46.96421062 0 0 1-64.26947344-1.26315844L64.38736812 410.37473719a46.8631575 46.8631575 0 1 1 65.58315844-67.02315844l27.30947344 26.67789469v-368.61473625C157.28-24.505262809999977 178.27368406-45.47368405999998 204.19368406-45.47368405999998h178.02947344a46.88842125 46.88842125 0 0 1 46.913685 47.01473625l0.53052563 144h164.79157968l-0.90947437-144.15157875c0-25.89473719 20.99368406-46.8631575 46.88842125-46.8631575h182.98105312c25.94526281 0 46.91368406 20.96842125 46.91368406 46.8631575v274.86315844a46.8631575 46.8631575 0 0 1-93.75157968-1e-8v-227.94947437h-88.32v144.15157969a46.88842125 46.88842125 0 0 1-46.88842032 46.88842031H382.65263187c-12.48 0-24.42947344-4.95157875-33.19578937-13.79368406a46.81263187 46.81263187 0 0 1-13.69263187-33.22105219l0.35368406-144.02526375H251.10736812V461.73473719l246.03789469 240.50526281 398.19789469-360.15157875c8.96842125-8.10947344 20.26105219-12.10105219 31.45263187-12.10105312a46.8631575 46.8631575 0 0 1 31.47789469 81.62526374z"  horiz-adv-x="1024" />

    
    <glyph glyph-name="zhuye" unicode="&#58890;" d="M974.5749333333333 421.20533333333333l-427.0762666666667 391.03146666666663c-18.568533333333335 17.476266666666668-51.882666666666665 17.476266666666668-70.4512 0l-426.53013333333337-390.4853333333333c-15.291733333333333-13.1072-19.6608-32.768-11.4688-50.7904 8.192-17.476266666666668 25.668266666666668-27.8528 45.8752-27.8528h45.8752c13.1072 0 23.48373333333333-9.8304 23.48373333333333-21.845333333333333v-340.24106666666665c0-25.122133333333334 22.391466666666666-45.8752 49.69813333333333-45.8752h173.6704c27.30666666666667 0 49.69813333333333 20.753066666666665 49.69813333333333 45.8752v246.85226666666668c0 12.014933333333332 10.376533333333333 21.845333333333333 23.48373333333333 21.845333333333333h122.33386666666667c13.1072 0 23.48373333333333-9.8304 23.48373333333333-21.845333333333333v-246.85226666666668c0-25.122133333333334 22.391466666666666-45.8752 50.24426666666667-45.8752h173.6704c27.8528 0 50.7904 20.753066666666665 50.7904 45.8752v339.6949333333333c0 6.5536 1.6384 10.922666666666666 6.5536 15.291733333333333 4.369066666666667 3.8229333333333333 10.376533333333333 6.007466666666666 16.930133333333334 6.007466666666666h43.144533333333335c20.206933333333332 0 37.6832 10.922666666666666 45.8752 27.8528 9.284266666666667 18.0224 4.9152 38.22933333333334-9.284266666666667 51.336533333333335z"  horiz-adv-x="1024" />

    
    <glyph glyph-name="lianxi1" unicode="&#58977;" d="M609.6 248.8l-158.4-59.2 60 157.6 8.8 8.8 99.2-99.2-9.6-8z m42.4 41.6l-99.2 99.2 246.4 246.4 99.2-99.2-246.4-246.4z m312 312.8l-33.6-33.6-98.4 99.2 33.6 33.6c18.4 18.4 48 18.4 65.6 0l32.8-32.8c18.4-18.4 18.4-48 0-66.4zM590.4 568.8h71.2l48.8 48.8-2.4 12-155.2 167.2v-190.4c0.8-21.6 17.6-37.6 37.6-37.6zM772.8 341.6l-106.4-106.4-98.4-36.8h77.6v-36.8h-176.8l-72.8-27.2 10.4 27.2H240v36.8h180.8l28 73.6H240v36.8h223.2l36 94.4 127.2 127.2h-34.4c-40.8 0-73.6 32.8-73.6 73.6v203.2H184c-40.8 0-73.6-32.8-73.6-73.6V32c0-40.8 32.8-73.6 73.6-73.6h517.6c40.8 0 73.6 32.8 73.6 73.6v297.6l-2.4 12z m-532.8 190.4h184.8v-36.8H240v36.8z m0-111.2h184.8v-36.8H240v36.8z"  horiz-adv-x="1024" />

    
    <glyph glyph-name="kecheng1" unicode="&#58996;" d="M834.04549344 804.15001875H664.53610062v0.02302406H353.86225719v-0.02302406H191.78398625c-42.66994969 0-77.27656688-33.4621125-77.27656594-74.75347781v-686.09898469c0-42.36487687 33.93027563-76.703835 75.80492438-76.703835h654.24953812c41.87464875 0 60.17232281 35.55445406 61.08274594 77.84929875l1.12243875 686.09802562c-0.25902469 41.349885-30.05162531 73.60897313-72.72157406 73.60897313z m-58.67669719-765.57342188l-542.57453437 0.2100975c-34.86468188 0-46.80570563 10.32931687-46.80570657 44.01399844l0.60726844 614.16119906c0 33.17047031 3.01427625 35.75303906 37.78494188 35.75303907h129.4805325V397.07209687l146.56175062 102.01147688 164.43827156-101.71983469-0.26957718 335.35023281h129.09583312c35.72905594 0 38.81336437-2.58256875 38.81336438-35.75303906l-0.14006532-610.65669468c0.00191906-60.730665 5.00300813-47.72764031-56.99207906-47.72764124z m-182.10373406 693.81023719v-191.61472594l-0.18707344 0.16308938-95.71430532 47.85715312-71.78620874-47.85715312V732.27075281l167.6875875 0.11608125z"  horiz-adv-x="1024" />

    
    <glyph glyph-name="xie" unicode="&#58974;" d="M434.548 306.854c-1.095-0.11-1.947 0.7-1.895 1.798l7.345 154.71c0.052 1.098 0.734 2.63 1.515 3.405l302.94 300.194a2.028 2.028 0 0 0 2.842 0l142.132-140.837a1.984 1.984 0 0 0 0-2.816L586.812 323.392c-0.782-0.775-2.316-1.498-3.41-1.608l-148.854-14.93z m56.083 138.06c-0.781-0.774-1.463-2.306-1.515-3.405l-3.66-77.216c-0.052-1.1 0.801-1.908 1.896-1.798l73.382 7.364c1.095 0.11 2.63 0.833 3.41 1.607l254.117 251.842a1.984 1.984 0 0 1 0 2.816l-70.966 70.324a2.028 2.028 0 0 1-2.841 0L490.63 444.914zM880.314 3.59c0-1.1-0.9-2-2-2H145.198c-1.1 0-2 0.9-2 2v733.1c0 1.1 0.9 2 2 2h364.566c1.1 0 2-0.9 2-2v-46.097c0-1.1-0.9-2-2-2h-314.47c-1.1 0-2-0.9-2-2v-632.906c0-1.1 0.9-2 2-2h632.923c1.1 0 2 0.9 2 2V360.46c0 1.1 0.9 2 2 2h46.097c1.1 0 2-0.9 2-2V3.59zM511.747 557.018c0-1.1-0.9-2-2-2H259.302c-1.1 0-2 0.9-2 2v46.097c0 1.1 0.9 2 2 2h250.445c1.1 0 2-0.9 2-2v-46.097zM377.048 434.222c0-1.1-0.9-2-2-2H259.302c-1.1 0-2 0.9-2 2v46.096c0 1.1 0.9 2 2 2h115.746c1.1 0 2-0.9 2-2v-46.096zM377.048 311.426c0-1.1-0.9-2-2-2H259.302c-1.1 0-2 0.9-2 2v46.097c0 1.1 0.9 2 2 2h115.746c1.1 0 2-0.9 2-2v-46.097zM766.193 188.631c0-1.1-0.9-2-2-2H259.302c-1.1 0-2 0.9-2 2v46.097c0 1.1 0.9 2 2 2h504.891c1.1 0 2-0.9 2-2v-46.097z"  horiz-adv-x="1024" />

    
    <glyph glyph-name="view" unicode="&#58888;" d="M512 557.714c-90.89 0-164.571-73.681-164.571-164.571s73.681-164.572 164.571-164.572 164.571 73.681 164.571 164.571-73.681 164.572-164.571 164.572zM512 283.429c-60.497 0-109.714 49.218-109.714 109.714s49.217 109.714 109.714 109.714c60.496 0 109.714-49.218 109.714-109.714s-49.218-109.714-109.714-109.714zM972.318 410.224c-2.090 2.625-52.095 65.004-133.169 128.005-47.884 37.209-96.757 66.917-145.264 88.297-61.572 27.141-122.768 40.903-181.885 40.903-59.118 0-120.313-13.761-181.886-40.902-48.507-21.38-97.38-51.088-145.263-88.297-81.074-63.001-131.080-125.38-133.168-128.005l-13.596-17.081 13.596-17.082c2.089-2.624 52.094-65.004 133.168-128.005 47.883-37.209 96.756-66.917 145.263-88.298 61.573-27.14 122.768-40.901 181.886-40.901 59.117 0 120.313 13.762 181.886 40.901 48.507 21.381 97.38 51.089 145.264 88.298 81.074 63.001 131.079 125.381 133.169 128.005l13.596 17.082-13.597 17.080zM805.488 291.373c-44.337-34.455-89.33-61.847-133.729-81.417-54.558-24.048-108.309-36.241-159.76-36.241-51.244 0-104.773 12.096-159.102 35.952-44.269 19.438-89.142 46.663-133.372 80.919-51.641 39.995-90.448 80.459-110.243 102.57 19.611 21.924 57.926 61.891 109.229 101.758 44.338 34.454 89.331 61.847 133.729 81.417 54.558 24.048 108.309 36.241 159.76 36.241 51.243 0 104.773-12.096 159.103-35.952 44.269-19.439 89.142-46.664 133.372-80.919 51.642-39.995 90.447-80.459 110.243-102.57-19.612-21.925-57.927-61.892-109.23-101.758z"  horiz-adv-x="1024" />

    
    <glyph glyph-name="xingbie1" unicode="&#58919;" d="M512 896C230 896 0 666.125 0 384s230-512 512-512 512 230 512 512S794 896 512 896z m14.375-544.25c61.125 0 115 37.75 134.75 95.25 3.625 10.75 16.125 16.125 27 12.625 10.75-3.625 16.125-16.125 12.625-27-25.125-64.625-84.375-111.375-154.5-118.625v-70h88c10.75 0 19.75-9 19.75-19.75s-9-19.75-19.75-19.75H546.25v-88.125c0-10.75-9-19.75-19.75-19.75-10.75 0-19.75 9-19.75 19.75v88H418.75c-10.75 0-19.75 9-19.75 19.75s9 19.75 19.75 19.75h88v70c-93.375 9-165.25 88-165.25 181.5 0 102.375 82.625 185 185 185 77.25 0 147.25-48.5 174.25-122.125 3.625-10.75-1.75-21.5-12.625-27-10.75-3.625-21.5 1.75-27 12.625-19.75 57.5-73.625 95.25-134.75 95.25-79 0-143.75-64.625-143.75-143.75 0-79 64.75-143.625 143.75-143.625z"  horiz-adv-x="1024" />

    
    <glyph glyph-name="xueli" unicode="&#58884;" d="M983.305159 553.277358L537.249057 787.047566a58.486042 58.486042 0 0 1-54.254671-0.001024L36.913724 553.279405c-19.332301-10.126638-31.341822-29.970592-31.341822-51.788504 0-21.848611 12.021801-41.696658 31.347962-51.785433l135.075395-70.707389v-238.902088c0-6.427386 1.079588-12.596899 3.060709-18.322298 3.148713-11.711739 10.724249-25.493627 27.186176-39.005362 24.854061-20.388353 72.27407-41.707914 130.102127-58.493206 60.141752-17.457604 120.787994-27.070542 170.767291-27.070542a405.638577 405.638577 0 0 1 8.489349 0.086981c51.993165 1.206478 133.00627 15.890922 197.008956 35.709293 93.232404 28.870538 138.554636 62.726623 138.554635 103.503329h-0.077771c0.38067 2.64627 0.578168 5.355985 0.578168 8.111748V378.703367l115.26828 60.337203v-311.889402h51.16531V493.485577c0.36225 2.638083 0.547469 5.324262 0.547469 8.03807 0.001023 21.770839-12.000312 41.597397-31.340799 51.753711zM796.500613 144.613888c0-2.1295-1.020236-3.142573-1.272993-3.279697a0.971118 0.971118 0 0 0 0.37453 0.079818v-6.418176c-3.053546-6.997368-24.785499-29.170366-102.126982-53.119825-59.991326-18.576077-135.2688-32.32522-183.000918-33.43346-2.367931-0.049119-4.845355-0.073678-7.362688-0.073678-44.6315 0-101.675704 9.127891-156.50445 25.043372-49.91176 14.486946-92.795453 33.230845-111.908765 48.909944-6.540973 5.368264-10.44591 10.670014-10.44591 14.180977h-0.150426v0.529049c0.113587 0 0.24764-0.036839 0.297782-0.063445-0.330528 0.170892-1.238201 1.228991-1.238201 3.127224V352.214063l259.838934-136.016837a58.684564 58.684564 0 0 1 27.123754-6.678096c9.434883 0 18.823718 2.319835 27.089985 6.674003l259.288394 135.726218V144.613888z m163.131381 350.449627L513.423419 261.492852c-2.016937-1.063215-4.597715-1.066285-6.690376 0.031722L60.623729 495.048165c-2.360767 1.233084-3.886517 3.761674-3.886517 6.442736a7.28287 7.28287 0 0 0 3.92131 6.467295l446.075544 233.763045a7.30436 7.30436 0 0 0 3.393284 0.847298c1.152243 0 2.303462-0.280386 3.374863-0.841158l446.034613-233.758952c2.433422-1.278109 3.944845-3.747347 3.944845-6.443759 0-2.738367-1.485841-5.219885-3.849677-6.461155z"  horiz-adv-x="1024" />

    
    <glyph glyph-name="xiugai" unicode="&#58908;" d="M65.08600000000001 133.76966666666658L65.08600000000001-52.51333333333321 251.33000000000004-52.51333333333321l484.103 521.4589999999998-186.15999999999994 186.18299999999996L65.08500000000004 133.76966666666658z m819.3610000000001 484.084c18.411 18.31 18.411 56.135999999999996 0 74.52799999999999L772.667 804.1206666666666c-18.493999999999996 18.31-56.054 18.31-74.467 0L586.504 692.3826666666668l186.162-186.223 111.781 111.69399999999999zM437.49199999999996 22.031666666666638l-74.464-74.545L958.9099999999999-52.51333333333332l0 74.545L437.49199999999996 22.031666666666638z"  horiz-adv-x="1024" />

    
    <glyph glyph-name="huiji" unicode="&#58883;" d="M925.6952818009547-31.077763370350453H118.82116236410221c-26.72424095288889 0-51.97794166286748 25.253700709978595-51.97794166286748 51.94966204281152V619.9473699380676c0 26.72424095288889 25.253700709978595 51.97794166286748 51.97794166286748 51.97794166286748H925.6952818009547c26.752520572944853 0 52.006221282923455-25.253700709978595 52.006221282923455-51.97794166286748V22.992870176658585c2.799682385540741-11.057331441883129 0.4807535409514403-22.736814524997527-6.560871852984362-32.52156306436214-9.728189299252673-13.489378766696294-26.752520572944853-21.549070482646915-45.4453494299391-21.549070482646915zM118.82116236410221 641.3550423204346c-10.010985499812344 0-21.40767238236708-11.396686882554729-21.40767238236708-21.40767238236708v-599.1037508856625c0-9.982705879756377 11.396686882554729-21.37939276231111 21.40767238236708-21.37939276231111H925.6952818009547c10.520018660819753 0 17.674762534979426 4.779255789458436 20.64412264085597 8.90808031762963 2.799682385540741 3.8743079476674893 1.83817530363786 6.758829193376131 1.5553791030781892 7.635497415111111l-0.7635497415111111 4.83581502957037V619.9473699380676c0 9.78474853936461-11.651203463058437 21.40767238236708-21.435952002423043 21.40767238236708H118.82116236410221zM82.11421553145684 341.81730668763123h886.3964110342318v-30.598548900556374H82.11421553145684zM403.0596235466272 644.4092412864791h-30.57026928050041v97.81920577359013c0 34.10522178749629 26.15864855176955 51.97794166286748 51.97794166286748 51.97794166286748h189.5017339950354c34.07694216744032 0 51.94966204281152-26.15864855176955 51.94966204281152-51.97794166286748v-79.46573235726751h-30.57026928050041v79.46573235726751c0 9.869587399532511-5.599364771081482 21.40767238236708-21.37939276231111 21.40767238236708h-189.5017339950354c-9.869587399532511 0-21.40767238236708-5.599364771081482-21.40767238236708-21.40767238236708v-97.81920577359013zM534.4750179467062 412.12044214676547m-30.57026928050041 0a30.57026928050041 30.57026928050041 0 1 1 61.14053856100082 0 30.57026928050041 30.57026928050041 0 1 1-61.14053856100082 0Z"  horiz-adv-x="1024" />

    
    <glyph glyph-name="sign" unicode="&#59167;" d="M800.8 728.3h-68.7v-55c0-20.9-19.4-37.9-43.3-37.9s-43.3 17-43.3 37.9v55h-267v-55c0-20.9-19.4-37.9-43.3-37.9s-43.3 17-43.3 37.9v55h-68.7c-46.4 0-84.1-33-84.1-73.6v-594c0-40.6 37.7-73.6 84.1-73.6h577.7c46.4 0 84.1 33 84.1 73.6v594c-0.1 40.6-37.8 73.6-84.2 73.6m29.4-656.4c0-13.1-13.2-23.8-29.4-23.8H223.2c-16.2 0-29.4 10.7-29.4 23.8v448h636.4v-448m-494.3 578c11.5 0 20.7 7.1 20.7 15.9v99.3c0 8.8-9.2 15.9-20.7 15.9s-20.7-7.1-20.7-15.9v-99.3c0-8.8 9.2-15.9 20.7-15.9m352.2 0c11.5 0 20.7 7.1 20.7 15.9v99.4c0 8.8-9.3 15.9-20.7 15.9-11.5 0-20.7-7.1-20.7-15.9v-99.4c0-8.8 9.2-15.9 20.7-15.9m14.7-264.5l-203.3-234c-10.8-12.5-28.4-12.5-39.2 0L346.1 282.79999999999995c-10.8 12.5-10.8 32.7 0 45.1 10.8 12.5 28.4 12.5 39.2 0l94.5-108.7 183.7 211.3c10.8 12.5 28.4 12.5 39.2 0 10.9-12.5 10.9-32.7 0.1-45.1m0 0"  horiz-adv-x="1024" />

    
    <glyph glyph-name="shijuan" unicode="&#59277;" d="M309.7349688888889 672.6155377777777c0-21.240035555555554-17.19296-38.45575111111111-38.434133333333335-38.45575111111111-21.21841777777778 0-38.434133333333335 17.216853333333333-38.434133333333335 38.45575111111111 0 21.19566222222222 17.216853333333333 38.41251555555556 38.434133333333335 38.41251555555556 21.240035555555554 0.007964444444444444 38.434133333333335-17.216853333333333 38.434133333333335-38.41251555555556zM309.7349688888889 531.6676266666667c0-21.251413333333335-17.19296-38.41251555555556-38.434133333333335-38.41251555555556-21.21841777777778 0-38.434133333333335 17.170204444444444-38.434133333333335 38.41251555555556 0 21.21841777777778 17.216853333333333 38.41251555555556 38.434133333333335 38.41251555555556 21.240035555555554 0 38.434133333333335-17.205475555555555 38.434133333333335-38.41251555555556zM232.86556444444443 390.7037866666667c0-21.22638222222222 17.20775111111111-38.434133333333335 38.434133333333335-38.434133333333335s38.434133333333335 17.20775111111111 38.434133333333335 38.434133333333335-17.20775111111111 38.434133333333335-38.434133333333335 38.434133333333335-38.434133333333335-17.20775111111111-38.434133333333335-38.434133333333335zM657.3044622222221 637.8928355555556H399.42371555555553c-19.138560000000002 0-34.69312 15.531804444444445-34.69312 34.72725333333333 0 19.149937777777776 15.55456 34.68060444444444 34.69312 34.68060444444444h257.88074666666665c19.171555555555557 0 34.69312-15.531804444444445 34.69312-34.68060444444444 0.013653333333333333-19.195448888888887-15.510186666666666-34.72725333333333-34.69312-34.72725333333333zM657.3044622222221 496.9289955555556H399.42371555555553c-19.138560000000002 0-34.69312 15.55456-34.69312 34.72725333333333s15.55456 34.72725333333333 34.69312 34.72725333333333h257.88074666666665c19.171555555555557 0 34.69312-15.55456 34.69312-34.72725333333333s-15.510186666666666-34.72725333333333-34.69312-34.72725333333333zM657.3044622222221 355.9879111111111H399.42371555555553c-19.138560000000002 0-34.69312 15.55456-34.69312 34.70222222222222 0 19.205688888888886 15.55456 34.72725333333333 34.69312 34.72725333333333h257.88074666666665c19.171555555555557 0 34.69312-15.51815111111111 34.69312-34.72725333333333 0.013653333333333333-19.149937777777776-15.510186666666666-34.70222222222222-34.69312-34.70222222222222zM232.86556444444443 258.5122133333333c0-21.22638222222222 17.20775111111111-38.434133333333335 38.434133333333335-38.434133333333335s38.434133333333335 17.20775111111111 38.434133333333335 38.434133333333335-17.20775111111111 38.434133333333335-38.434133333333335 38.434133333333335-38.434133333333335-17.20775111111111-38.434133333333335-38.434133333333335zM657.3044622222221 223.78495999999996H399.42371555555553c-19.138560000000002 0-34.69312 15.540906666666668-34.69312 34.72725333333333 0 19.171555555555557 15.55456 34.69312 34.69312 34.69312h257.88074666666665c19.171555555555557 0 34.69312-15.521564444444444 34.69312-34.69312 0.013653333333333333-19.18293333333333-15.510186666666666-34.72725333333333-34.69312-34.72725333333333zM1020.6879288888889 690.8973511111111c0 125.38652444444445-46.30072888888889 171.68839111111112-103.45585777777777 171.68839111111112H213.59160888888886c-58.76963555555555 0-106.62229333333333-47.804871111111105-106.62229333333333-106.63139555555556v-670.3160888888889H3.3097955555555814c0-156.55139555555556 57.77521777777778-180.22286222222223 129.11729777777776-180.22286222222223H749.6590222222222c58.81628444444445 0 106.64391111111111 47.804871111111105 106.64391111111111 106.63139555555556V690.8973511111111h164.38499555555558zM813.6294400000002 12.059306666666771c0-35.26883555555556-28.689066666666665-63.96928-63.96928-63.96928-57.10847999999999 0-86.34140444444444 12.1856-86.34140444444444 137.57212444444443h-513.6725333333334V755.9680000000001c0 35.26883555555556 28.642417777777776 63.96928 63.93742222222222 63.96928h628.1955555555555c-16.91079111111111-26.801493333333333-27.446613333333335-67.37351111111111-27.90855111111111-125.27160888888888-0.13539555555555555-1.2993422222222222-0.24917333333333333-2.60096-0.24917333333333333-3.764906666666667v-678.8391822222221h0.007964444444444444z"  horiz-adv-x="1024" />

    
    <glyph glyph-name="kecheng" unicode="&#58910;" d="M843.7411698242188 721.5v-731.34H263.2411698242188a84.42 84.42 0 0 0 0 168.84h525.24V834H235.52116982421882A111.96 111.96 0 0 1 125.00116982421878 721.5v-675A111.78 111.78 0 0 1 235.52116982421882-66H899.0011698242188V721.5zM263.2411698242188 102.65999999999997a28.08 28.08 0 0 1 0-56.34h525.24v56.34z"  horiz-adv-x="1024" />

    
    <glyph glyph-name="zyojiantou" unicode="&#59009;" d="M756.6453940000004-55.994035999999596c13.515827999999988 12.812817000000011 13.515827999999974 33.603329000000016-6.039613253960852e-14 46.417169l-414.88926500000065 393.57993699999946 414.8892649999996 393.56561100000033c13.515828 12.821003000000001 13.515827999999956 33.60435199999999-4.973799150320701e-14 46.425355999999994-13.50866500000001 12.81997999999999-35.41867400000002 12.819979999999966-48.927339-3.552713678800501e-15l-432.15960399999955-410.0091180000003c0 0-18.33866999999998-16.991999000000018-18.338669999999983-29.981848000000028 1.509903313490213e-14-11.971658999999999 18.338670000000022-29.98901099999998 18.338670000000022-29.98901099999998L707.7170320000002-55.99403599999971C721.2267200000003-68.81503899999962 743.1367290000003-68.81503899999939 756.6453940000004-55.994035999999596z"  horiz-adv-x="1024" />

    


  </font>
</defs>
</svg>
