<?xml version="1.0" standalone="no"?>
<!DOCTYPE svg PUBLIC "-//W3C//DTD SVG 1.1//EN" "http://www.w3.org/Graphics/SVG/1.1/DTD/svg11.dtd" >
<!--
2013-9-30: Created.
-->
<svg>
<metadata>
Created by iconfont
</metadata>
<defs>

<font id="iconfont" horiz-adv-x="1024" >
  <font-face
    font-family="iconfont"
    font-weight="500"
    font-stretch="normal"
    units-per-em="1024"
    ascent="896"
    descent="-128"
  />
    <missing-glyph />
    
    <glyph glyph-name="x" unicode="x" horiz-adv-x="1001"
d="M281 543q-27 -1 -53 -1h-83q-18 0 -36.5 -6t-32.5 -18.5t-23 -32t-9 -45.5v-76h912v41q0 16 -0.5 30t-0.5 18q0 13 -5 29t-17 29.5t-31.5 22.5t-49.5 9h-133v-97h-438v97zM955 310v-52q0 -23 0.5 -52t0.5 -58t-10.5 -47.5t-26 -30t-33 -16t-31.5 -4.5q-14 -1 -29.5 -0.5
t-29.5 0.5h-32l-45 128h-439l-44 -128h-29h-34q-20 0 -45 1q-25 0 -41 9.5t-25.5 23t-13.5 29.5t-4 30v167h911zM163 247q-12 0 -21 -8.5t-9 -21.5t9 -21.5t21 -8.5q13 0 22 8.5t9 21.5t-9 21.5t-22 8.5zM316 123q-8 -26 -14 -48q-5 -19 -10.5 -37t-7.5 -25t-3 -15t1 -14.5
t9.5 -10.5t21.5 -4h37h67h81h80h64h36q23 0 34 12t2 38q-5 13 -9.5 30.5t-9.5 34.5q-5 19 -11 39h-368zM336 498v228q0 11 2.5 23t10 21.5t20.5 15.5t34 6h188q31 0 51.5 -14.5t20.5 -52.5v-227h-327z" />
    

    
    <glyph glyph-name="txweibo" unicode="&#58880;" d="M516.21875 801.65625q75.93749999999999 0 142.171875-28.6875t115.59375000000001-78.046875 78.046875-115.59375000000001 28.6875-141.328125q0-75.93749999999999-28.6875-142.171875t-78.046875-115.59375000000001-115.59375000000001-78.046875-142.171875-28.6875l-10.96875 0q-5.062499999999999 0-10.124999999999998 0.8437499999999999l-3.3749999999999996 0q-12.656249999999998 1.6874999999999998-21.515624999999996 11.390624999999998t-8.859375 23.203125q0 14.34375 10.124999999999998 24.46875t24.46875 10.124999999999998q3.3749999999999996 0 10.124999999999998-1.6874999999999998l0.8437499999999999 0.8437499999999999 9.281249999999998 0q60.75 0 114.75 23.203125t94.07812500000001 63.28125 63.28125 94.07812500000001 23.203125 114.75-23.203125 114.75-63.28125 93.65625-94.07812500000001 62.859375-114.75 23.203125-114.75-23.203125-93.65625-62.859375-62.859375-93.65625-23.203125-114.75q0-62.43749999999999 24.46875-118.125 5.062499999999999-7.59375 5.062499999999999-18.562499999999996 0-14.34375-10.124999999999998-24.46875t-24.46875-10.124999999999998q-9.281249999999998 0-16.453124999999996 3.796875t-12.234375 10.546875q-16.875 35.4375-26.15625 74.67187499999999t-9.281249999999998 82.26562500000001q0 75.09375 28.6875 141.328125t78.046875 115.59375000000001 115.59375000000001 78.046875 141.328125 28.6875zM684.96875 438q0-34.59375-13.078125-65.390625t-35.85937500000001-53.578125-53.578125-36.28124999999999-66.234375-13.499999999999998q-28.6875 0-54.42187500000001 8.859375t-46.828125 25.734375000000004q-9.281249999999998-10.96875-23.625-27.421875000000004t-30.375-36.703125-32.90624999999999-42.609375-31.218749999999996-44.296875q-21.09375-32.06249999999999-39.234375-65.390625t-31.640625-61.171875q-16.031249999999996-32.90624999999999-29.53125-64.12499999999999l-86.90624999999999 3.3749999999999996q12.656249999999998 36.28124999999999 31.218749999999996 75.93749999999999 16.031249999999996 33.75 39.234375 75.09375t55.265625 82.6875q17.71875 22.781249999999996 37.12499999999999 45.56249999999999t37.96874999999999 43.03124999999999 34.59375 36.703125 26.999999999999996 27.421875000000004q-23.625 39.65625-23.625 86.06249999999999 0 34.59375 13.078125 65.390625t35.85937500000001 53.578125 53.578125 35.85937500000001 65.390625 13.078125q35.4375 0 66.234375-13.078125t53.578125-35.85937500000001 35.85937500000001-53.578125 13.078125-65.390625z"  horiz-adv-x="1024" />

    
    <glyph glyph-name="yijianfankui" unicode="&#58896;" d="M863.86005333 68.22570667000002H160.13994667c-29.90762667 0-54.13546667 24.23466667-54.13546667 54.12864V645.63882667c0 29.88714667 24.22784 54.13546667 54.13546667 54.13546666h703.72010666c29.90762667 0 54.13546667-24.24832 54.13546667-54.13546666v-523.28448C917.99552 92.46037333000004 893.76768 68.22570667000002 863.86005333 68.22570667000002zM178.18282667 140.40405333h667.64117333V597.13536l-316.83242667-228.21546667c-6.06208-7.89845333-14.6432-11.93301333-23.37450666-11.52341333-7.38645333-0.24576-14.62272 2.92864-20.26154667 9.05898667L178.18282667 578.7852800000001V140.40405333zM504.32 436.70186667l264.98389333 190.88725333H228.1472L504.32 436.70186667z"  horiz-adv-x="1024" />

    
    <glyph glyph-name="phone" unicode="&#58953;" d="M514.21025146 162.80307129000005c-20.39097479 0-36.88848983-16.1872251-36.88848984-36.18696533 0-20.00063935 16.49661504-36.18696533 36.88848984-36.18696533 20.35230117 0 36.88758983 16.18632597 36.88758985 36.18696533C551.09784131 146.61584618999996 534.56255263 162.80307129000005 514.21025146 162.80307129000005zM698.64910156 814.16754638L329.77140137 814.16754638c-91.1010331 0-149.85639756-68.94725362-147.55036114-144.74786132 0 0 0-615.17840889-2.99137148-575.52789199-5.87301769-60.9948457 68.40851924-149.51912607 150.54083349-148.21051289l368.8786002 0c111.81578906-6.78499981 147.55126026 84.8142958 147.55126025 144.74696133L846.20036182 669.41968506C843.89432539 765.57529219 782.79874825 814.16754638 698.64910156 814.16754638zM772.42428213 90.42914063c0-29.96678233-43.22739199-72.37303066-73.77428145-72.37303066L329.77140137 18.056109959999958c-30.58196572 0-73.77518057 42.40534922-73.77518057 72.37303066L255.9962208 669.41968506c0 30.00365771 43.19321484 72.37393066 73.77518055 72.37393067l368.87860021 0c30.54688945 0 73.77428144-42.37027295 73.77428144-72.37393067L772.42428213 90.42914063zM403.54658106 524.6727237299999l221.3255417 0 0 72.37393067L403.54658106 597.0466544000001 403.54658106 524.6727237299999z"  horiz-adv-x="1024" />

    
    <glyph glyph-name="ts-icon-order" unicode="&#58938;" d="M745.728 303.253c-1.548 21.933-18.755 38.468-40.032 38.468h-392.324c-21.105 0-38.941-18.019-38.941-39.345 0-21.322 17.836-39.337 38.941-39.337h393.439c21.112 0 38.948 18.015 38.948 39.337l-0.031 0.877zM419.26 608.686h182.786c27.755 0 51.205 26.783 51.205 58.485 0 32.247-23.473 58.482-52.323 58.482h-181.669c-28.85 0-52.319-26.233-52.319-58.482s23.47-58.485 52.319-58.485zM706.81 488.091h-393.438c-21.105 0-38.941-18.015-38.941-39.345 0-21.326 17.836-39.341 38.941-39.341h393.439c21.112 0 38.948 18.015 38.948 39.341-0.001 21.33-17.837 39.345-38.949 39.345zM705.697 182.973h-392.324c-21.105 0-38.941-18.019-38.941-39.345 0-21.322 17.836-39.337 38.941-39.337h393.439c21.112 0 38.948 18.015 38.948 39.337l-0.031 0.877c-1.548 21.931-18.756 38.468-40.032 38.468zM884.997 665.165c-20.917 22.63-50.931 34.593-86.794 34.593h-52.384c-20.875 0-43.403-13.752-43.403-35.962 0-20.994 21.498-41.598 43.403-41.598h52.384c24.411 0 40.187-15.933 40.187-40.596v-609.109c0-24.663-15.777-40.596-40.187-40.596l-563.96-0c-25.281 0-53.558 17.359-53.558 40.596l-0 609.108c0 24.663 15.773 40.596 40.187 40.596h65.758c19.293 0 32.256 16.719 32.256 41.598 0 22.519-12.059 35.962-32.256 35.962h-65.758c-73.24 0-116.963-44.593-116.963-119.282v-602.352c0-75.197 48.097-123.786 122.535-123.786h566.183c79.022 0 122.539 43.963 122.539 123.786v602.353c0 34.052-10.431 63.337-30.169 84.689z"  horiz-adv-x="1024" />

    
    <glyph glyph-name="zan1" unicode="&#58900;" d="M942.9734549333333 413.26491946666664c-6.841688533333333 47.04152213333333-41.79782826666667 84.94150933333333-93.50890133333334 101.36243626666666-27.37548693333333 8.709290666666668-73.79920533333333 20.299120000000002-111.562752 29.30421546666667 69.2551808 99.11934826666668 82.87306666666666 201.56130453333333 57.113038933333335 260.2144864-16.048715733333335 36.535578666666666-46.42917546666666 57.5027136-83.3293248 57.5027136-71.31816533333334 0-89.94506773333333-59.72069546666666-103.54658026666665-103.31954346666666-2.0149578666666663-6.466203733333333-4.093224533333333-13.136522666666666-6.3745152-19.928001066666663-12.6311456-37.5692544-75.97461866666666-105.33013546666666-168.43892906666667-156.91022506666667-69.22134293333333-38.58874026666666-135.50102186666666-91.3618688-138.29642133333334-93.58094293333333-9.244138666666666-7.392909866666667-14.618816-18.58324053333333-14.618816-30.397924266666667l0-374.8073162666667c0-12.515444266666666 6.015402666666666-24.254812799999996 16.166600533333334-31.570224 55.70060266666667-40.1234272 252.15574613333334-72.68257386666667 350.8592224-72.68257386666667 51.337770666666664 0 71.54192853333333 8.068564266666666 82.28582506666666 14.130903466666666 44.302882133333334 25.05490133333333 103.24750186666667 166.8747712 146.33988159999998 286.201552C925.725152 316.41703786666676 950.0116192 364.8611722666667 942.9734549333333 413.26491946666664L942.9734549333333 413.26491946666664 942.9734549333333 413.26491946666664zM146.36205333333334 525.2075232c-34.92011946666666 0-63.2255872-28.292370133333336-63.2255872-63.216855466666665l0-382.56916160000003c0-34.917936 28.30656-63.22667946666666 63.2255872-63.22667946666666 34.91357013333333 0 63.22122133333333 28.3087424 63.22122133333333 63.22667946666666l0 382.56916160000003C209.58327466666668 496.9151530666667 181.27562346666667 525.2075232 146.36205333333334 525.2075232L146.36205333333334 525.2075232 146.36205333333334 525.2075232zM146.36205333333334 525.2075232"  horiz-adv-x="1024" />

    
    <glyph glyph-name="close" unicode="&#58916;" d="M945.669 654.959l-66.711 66.712-366.959-366.96-366.958 366.96-66.712-66.712 366.959-366.959-366.959-366.96 66.712-66.711 366.958 366.96 366.959-366.96 66.711 66.711-366.959 366.96z"  horiz-adv-x="1024" />

    
    <glyph glyph-name="shiping" unicode="&#58893;" d="M875.6796666666667 721.766h-739.298c-23.363 0-42.427-19.064-42.427-42.427v-524.04c0-23.291999999999998 19.064-42.429 42.427-42.429h480.64699999999993l68.37099999999997-93.742c10.93-15.118 28.953-15.118 40.02499999999999 0l68.301 93.742h81.954c23.364 0 42.463 19.137 42.463 42.429v524.039c0.001 23.364-19.098 42.428-42.462 42.428zM737.5386666666666 491.495c32.754 0 59.235-26.517 59.235-59.341 0-32.754-26.481-59.198-59.235-59.198-32.753 0-59.27 26.443-59.27 59.198 0 32.824 26.517 59.341 59.27 59.341zM274.5236666666667 372.956c-32.752 0-59.23399999999999 26.443-59.23399999999999 59.198 0 32.825 26.481 59.341 59.23399999999999 59.341 32.718 0 59.27-26.517 59.27-59.341 0-32.755-26.553-59.198-59.27-59.198zM506.04866666666663 372.956c-32.824 0-59.376 26.443-59.376 59.198 0 32.825 26.553 59.341 59.376 59.341 32.753 0 59.23399999999999-26.517 59.23399999999999-59.341 0-32.755-26.481-59.198-59.23399999999999-59.198z"  horiz-adv-x="1024" />

    
    <glyph glyph-name="wechat" unicode="&#58997;" d="M512 11.6639c-65.406662 0-127.142725 13.488199-182.684716 37.021172l-145.736199-73.129554c-10.091846-5.613858-21.704324-6.557346-32.321126-3.541663-0.042979 0.01228-0.086981 0.010233-0.132006 0.020466-20.48966 5.311982-33.643238 23.857361-32.310893 43.586704 0.151449 4.579295 1.168616 9.012258 2.784416 13.233396l40.241516 144.048767c-52.792367 64.949244-84.212984 144.935973-84.212984 231.764528 0 217.050408 194.477296 393.003815 434.373015 393.003815 239.897765 0 434.373015-175.954431 434.373015-393.003815C946.373015 187.616284 751.897765 11.6639 512 11.6639zM512 714.934155c-194.202027 0-351.635639-138.912793-351.635639-310.266439 0-75.225285 30.368658-144.174634 80.84119-197.885929l-0.014326-0.058328c9.53926-10.288321 13.730723-24.847921 9.759271-39.194674l-20.142759-72.098062 72.453149 36.354999c13.289678 7.394411 29.150924 6.54916 41.970904-0.633427l0.388856 0.171915c49.541323-23.526833 106.177228-36.923958 166.379355-36.923958 194.204074 0 351.635639 138.910747 351.635639 310.266439C863.634616 576.021362 706.204074 714.934155 512 714.934155zM646.448108 425.352827c-28.559453 0-51.710732 23.150256-51.710732 51.710732 0 28.559453 23.152303 51.710732 51.710732 51.710732 28.561499 0 51.712779-23.152303 51.712779-51.710732C698.16191 448.50206 675.009607 425.352827 646.448108 425.352827zM377.550869 425.352827c-28.557406 0-51.710732 23.150256-51.710732 51.710732 0 28.559453 23.154349 51.710732 51.710732 51.710732 28.561499 0 51.710732-23.152303 51.710732-51.710732C429.262624 448.50206 406.112368 425.352827 377.550869 425.352827z"  horiz-adv-x="1024" />

    
    <glyph glyph-name="top" unicode="&#58898;" d="M188 178.46874999c-14.34375 0-29.53125 5.90625-39.65625 16.875-20.25 21.9375-19.40625 56.53125 2.53125 77.625l324 303.75c21.9375 20.25 56.53125 19.40625 77.625-2.53125 20.25-21.9375 19.40625-56.53125-2.53125-77.625l-324.84375-302.90625c-10.96875-10.125-23.625-15.1875-37.125-15.1875zM836 178.46874999c-13.5 0-27 5.0625-37.125 14.34375l-324 303.75c-21.9375 20.25-22.78125 54.84375-2.53125 77.625 20.25 21.9375 54.84375 22.78125 77.625 2.53125l324-303.75c21.9375-20.25 22.78125-54.84375 2.53125-77.625-10.96875-10.96875-25.3125-16.875-40.5-16.875z"  horiz-adv-x="1024" />

    
    <glyph glyph-name="bianji" unicode="&#58927;" d="M809.65625029 360.76478437000003L809.65625029 65.28604278C809.65625029 67.13449160000005 811.07606006 68.55882334 812.52376631 68.55882334L230.22623428 68.55882334C231.76081602 68.55882334 233.09375029 67.21448438000004 233.09375029 65.66250907999995L233.09375029 653.80807852C233.09375029 652.24159424 231.78563193 650.91176513 229.86231875 650.91176513L522.46431494 650.91176513C548.99987187 650.91176513 570.51119023 672.6391221700001 570.51119023 699.44117666 570.51119023 726.24323028 548.99987187 747.97058818 522.46431494 747.97058818L229.86231875 747.97058818C178.5748792 747.97058818 136.99999971 705.70566621 136.99999971 653.80807852L136.99999971 65.66250907999995C136.99999971 13.578362109999944 178.72134717-28.499999709999997 230.22623428-28.499999709999997L812.52376631-28.499999709999997C864.00119375-28.499999709999997 905.75 13.381824609999967 905.75 65.28604278L905.75 360.76478437000003C905.75 387.56683887 884.23868164 409.2941959 857.70312471 409.2941959 831.16756778 409.2941959 809.65625029 387.56683887 809.65625029 360.76478437000003L809.65625029 360.76478437000003ZM884.67192705 729.15140713L884.67192705 729.15140713C884.59321661 729.23090771 884.75026221 729.23053067 884.74768789 729.22793086L529.57361006 370.48682432C529.56697783 370.48012529000005 529.56701387 370.64653301 529.64937354 370.56334717000004 529.72808223 370.48384658 529.57103574 370.48422363 529.57361006 370.48682432L884.74768789 729.22793086C884.75432012 729.2346290099999 884.75428408 729.06822129 884.67192705 729.15140713L884.67192705 729.15140713ZM918.64619756 763.4668831L918.64619756 763.4668831C937.54048467 744.38284013 937.44358789 713.82210615 918.7219584 694.91245401L563.54788057 336.17134658C544.70313653 317.13734589 514.43857286 317.29595596 495.67510039 336.24787118999996 476.78081416 355.33191416 476.87771006 385.89264903 495.59933955 404.80230029L850.77341739 763.54340683C869.61816143 782.5774084 899.88272597 782.41879746 918.64619756 763.4668831L918.64619756 763.4668831Z"  horiz-adv-x="1024" />

    
    <glyph glyph-name="icon_share" unicode="&#58952;" d="M861.8637504 342.18798186666675c-21.59585386666667 0-39.0646464-17.5069952-39.0646464-39.0646464l0-199.96221759999997c0-17.276683733333336-14.023933866666665-31.3006176-31.258048-31.3006176L228.91039039999998 71.86050133333333c-17.23848 0-31.228575999999997 14.023933866666665-31.228575999999997 31.3006176L197.6818133333333 665.7492149333334c0 17.23848 13.990097066666667 31.265688533333332 31.228575999999997 31.265688533333332l175.8034592 0c21.59585386666667 0 39.0646464 17.502629333333335 39.0646464 39.057004799999994 0 21.560924800000002-17.46879146666667 39.0646464-39.0646464 39.0646464L228.91039039999998 775.1365546666666c-60.31121173333333 0-109.38733973333332-49.076128000000004-109.38733973333332-109.38733973333332L119.52305066666668 103.1567520000001c0-60.34504853333333 49.076128000000004-109.42117653333332 109.38733973333332-109.42117653333332l562.6263008000001 0c60.3068448 0 109.4255424 49.076128000000004 109.4255424 109.42117653333332L900.9622336 303.12333546666673C900.9622336 324.6809866666666 883.4552384 342.18798186666675 861.8637504 342.18798186666675L861.8637504 342.18798186666675zM861.8637504 342.18798186666675M466.2148245333333 216.70935680000002c1.1810314666666666-0.11133546666666666 2.3664298666666665-0.15390506666666667 3.5518272-0.15390506666666667 19.992401066666666 0 37.0354976 15.247534933333332 38.8725376 35.581584 2.1743210666666664 24.192596266666666 12.762129066666667 96.23771839999999 35.19736746666666 138.2789568 30.80615573333333 57.56056426666667 88.0982048 164.73101333333335 241.47079146666667 184.91115733333334 2.6349450666666665 0.37985173333333333 4.8562016 1.6754933333333333 7.300130133333333 2.5203349333333334L726.9488778666667 440.4079125333333c-9.329277866666667-19.451003733333334-1.0740618666666668-42.80312426666667 18.419511466666666-52.05599573333333 5.428162133333333-2.5967413333333336 11.124839466666666-3.8203434666666665 16.777856-3.8203434666666665 14.603534933333332 0 28.589265066666666 8.177717333333334 35.279232 22.206017066666668l101.04698453333333 211.50838613333332c4.476350933333333 9.3587488 5.0483104 20.09937066666667 1.5685237333333333 29.851069866666666-3.4361258666666665 9.785536-10.658757333333334 17.766778666666667-19.988035200000002 22.2442208l-211.50511146666668 100.97494400000001c-19.41716693333333 9.247413333333332-42.76928746666667 0.9932895999999999-52.094199466666666-18.423877333333333-9.324912000000001-19.452095999999997-1.0707871999999998-42.80421653333334 18.423877333333333-52.05708693333333l111.1774432-53.12241706666667c-171.60435626666668-34.933218133333334-240.77985493333333-163.69406293333336-271.0904576-220.45017173333332-34.5107968-64.51031466666666-43.759301333333326-163.96257813333335-44.14351893333333-168.12893546666666C428.87260799999996 237.61864106666667 444.73358079999997 218.6620981333333 466.2148245333333 216.70935680000002L466.2148245333333 216.70935680000002zM466.2148245333333 216.70935680000002"  horiz-adv-x="1024" />

    
    <glyph glyph-name="xiaoxi" unicode="&#59042;" d="M921.80766293 94.48675627c0-20.13320853-17.9250496-37.0464128-39.2698528-37.0464128L141.46546453 57.44034239999996c-21.3448032 0-39.27531093 16.91320533-39.27531093 37.0464128 0 8.0511008 3.4132032 16.10765867 7.68653013 22.55203093l0 0 0.84811627 0.8011808c1.7104224 2.4177312 3.41866133 4.02991573 5.9772 5.63773547l71.71984747 67.64954453L188.42184747 458.49341653c0 146.57019307 108.4300704 264.94952853 251.8621248 297.1637536l0 29.79649387c0 39.45977813 29.0258752 74.0884608 70.860816 74.0884608 41.83930667 0 70.86409067-34.6286816 70.86409066-74.0884608l0-29.79649387c143.4320544-32.21422507 251.8621248-151.4001984 251.8621248-297.1637536l0-267.36616853 71.7143904-67.64954453c2.56399573-1.60672747 4.27332693-3.2200032 5.9782912-5.63773547l0.85357334-0.8011808 0 0C918.39555093 110.59441387000004 921.80766293 102.53785600000003 921.80766293 94.48675627L921.80766293 94.48675627zM740.8096288 458.49341653c0 118.37933547-104.15783573 215.82646507-228.81017493 215.82646507-124.64688107 0-228.80908267-97.4460384-228.80908267-215.82646507l0-312.4647744 456.764592 0L739.9549632 458.49341653 740.8096288 458.49341653zM511.99945387-91.54212480000001c-55.4910304 0-94.76743147 36.24086613-94.76743147 89.38948053l189.534864 0C606.7668864-54.494619729999954 567.4970336-91.54212480000001 511.99945387-91.54212480000001L511.99945387-91.54212480000001zM511.99945387-91.54212480000001"  horiz-adv-x="1024" />

    
    <glyph glyph-name="sousuo1" unicode="&#58939;" d="M942.536129 36.132174 761.426281 217.285001c47.102784 63.995523 74.966389 142.984528 74.966389 228.361011 0 212.869179-173.181271 386.05045-386.02589 386.05045-212.845643 0-386.026914-173.180248-386.026914-386.05045s173.181271-386.051473 386.026914-386.051473c85.365226 0 164.347069 27.862581 228.338498 74.965365l181.15078-181.107801c11.464099-11.464099 26.426883-17.148565 41.388643-17.148565s29.92352 5.684466 41.291428 17.148565C965.367113-23.716912 965.367113 13.300166 942.536129 36.132174zM159.358963 445.646012c0 160.477948 130.529869 291.031353 291.007817 291.031353s291.007817-130.553405 291.007817-291.031353c0-160.454412-130.529869-290.983257-291.007817-290.983257S159.358963 285.192623 159.358963 445.646012z"  horiz-adv-x="1024" />

    
    <glyph glyph-name="shijian" unicode="&#58911;" d="M489.916029 307.449533l206.614731 0c17.726733 0 32.07144 14.360056 32.07144 32.07144s-14.344706 32.07144-32.07144 32.07144L521.987468 371.592412 521.987468 552.601976c0 17.711384-14.344706 32.07144-32.07144 32.07144-17.726733 0-32.07144-14.360056-32.07144-32.07144l0-213.065653c0-0.00307 0-0.005117 0-0.008186s0-0.005117 0-0.008186C457.844589 321.809589 472.189296 307.449533 489.916029 307.449533zM786.635941 735.398232C692.772156 808.732447 575.98222 841.085296 457.750445 826.568674c-118.199029-14.516622-223.683479-74.211189-297.002344-168.075996-10.899234-13.96813-8.42488-34.122145 5.54325-45.02138 13.96813-10.899234 34.106796-8.377808 45.00603 5.5279 62.764486 80.365352 153.089677 131.478474 254.282381 143.912667 101.349269 12.370749 201.227024-15.284101 281.5934-78.063937 165.867702-129.567961 195.402365-369.961006 65.833381-535.87578-129.599683-165.899424-369.913934-195.464787-535.87578-65.833381C164.068729 171.460326 110.355387 313.97925 136.977721 455.105455c3.288906 17.413602-8.143471 34.18559-25.557072 37.473473-17.257036 3.163039-34.20094-8.17417-37.458123-25.572422-31.100322-164.818813 31.632441-331.281055 163.706479-434.415994 79.175247-61.85579 174.668135-94.553493 273.606495-94.553493 18.322297 0 36.769438 1.095961 55.247278 3.382027 118.230752 14.531971 223.715201 74.226538 297.033044 168.091346C1014.923274 303.283654 980.409203 584.047152 786.635941 735.398232z"  horiz-adv-x="1024" />

    
    <glyph glyph-name="wechat-copy" unicode="&#58995;" d="M693.12 548.736c11.776 0 23.36-0.896 35.008-2.176-31.36 146.048-187.456 254.528-365.696 254.528-199.232 0-362.432-135.744-362.432-308.224 0-99.52 54.272-181.248 145.024-244.736l-36.224-108.992 126.72 63.488c45.312-8.896 81.664-18.112 126.912-18.112 11.392 0 22.656 0.512 33.792 1.344-7.040 24.256-11.2 49.6-11.2 76.032 0.064 158.336 136 286.848 308.096 286.848zM498.304 646.976c27.392 0 45.376-17.984 45.376-45.248 0-27.136-17.984-45.312-45.376-45.312-27.072 0-54.336 18.176-54.336 45.312 0 27.328 27.2 45.248 54.336 45.248zM244.672 556.416c-27.2 0-54.592 18.176-54.592 45.312 0 27.264 27.392 45.248 54.592 45.248s45.248-17.92 45.248-45.248c0-27.136-18.048-45.312-45.248-45.312zM1024 266.24c0 144.896-145.024 262.976-307.904 262.976-172.48 0-308.224-118.144-308.224-262.976 0-145.28 135.808-262.976 308.224-262.976 36.096 0 72.512 9.024 108.736 18.112l99.392-54.528-27.264 90.624c72.768 54.656 127.040 127.040 127.040 208.768zM616.128 311.616c-17.984 0-36.224 17.92-36.224 36.224 0 18.048 18.24 36.224 36.224 36.224 27.52 0 45.376-18.176 45.376-36.224 0-18.304-17.856-36.224-45.376-36.224zM815.488 311.616c-17.856 0-36.032 17.92-36.032 36.224 0 18.048 18.112 36.224 36.032 36.224 27.264 0 45.376-18.176 45.376-36.224 0-18.304-18.112-36.224-45.376-36.224z"  horiz-adv-x="1024" />

    
    <glyph glyph-name="weibo" unicode="&#58935;" d="M-64.72284266192582 905.2092546465185L-64.72284266192582 905.2092546465185-64.72284266192582 905.2092546465185ZM745.3048577137778 370.0172827306667c-11.17847430637037 2.2404136959999996-18.436224644740737 5.58861638162963-21.774491344592594 10.04708992948148-3.3370251567407405 4.4572320047407405-3.8958870376296297 8.556792794074074-1.680310272 12.29868115437037l3.3606217576296302 5.577438852740741c0.7376974885925927 0.7389390317037037 1.4890555922962965 1.8579043365925925 2.2515912248888887 3.3606217576296302 0.7625356325925926 1.5014746642962962 2.2515912248888887 4.670841742222223 4.469651076740741 9.509341563259259 2.2168183087407405 4.839741364148148 3.8971285807407408 9.676999642074072 5.040932029629629 14.51674100622222 1.1438034488888889 4.838499821037036 2.073997160296296 10.795964946962961 2.7880980479999997 17.874878464000002 0.7153424308148147 7.078913517037036 0.5240877511111112 13.788979503407408-0.5712809528888888 20.13019553185185-1.0966102471111112 6.341216028444444-3.3370251567407405 13.228876079407407-6.72248384474074 20.66546081185185-3.3867014447407406 7.436585946074074-8.045124114962963 14.146650718814813-13.98023418311111 20.128953988740744-10.439535274666666 10.439535274666666-24.037258884740737 17.148358504296297-40.79441480059259 20.128953988740744-16.75715591585185 2.979353941333334-33.513069074962964 3.169365864296296-50.27022377718518 0.5712809528888888-16.75591315911111-2.6005692112592587-32.58287414992592-5.948771896888888-47.479641429333334-10.04708992948148-14.896767279407408-4.099560789333334-27.183029361777777-8.007865685333332-36.86127054696296-11.728642958222222l-14.515499463111109-6.72124230162963c-7.460181333333334-2.2404136959999996-13.608901138962961-3.7307120450370372-18.448643716740737-4.469651076740741-4.839741364148148-0.7401805748148149-8.569211866074074-0.5501686518518518-11.189651835259259 0.5712809528888888-2.621681512296296 1.1202068479999998-4.670841742222223 2.2404136959999996-6.151204105481481 3.359379000888889-1.479120820148148 1.1202068479999998-2.039224244148148 3.7294705019259258-1.680310272 7.83027283437037 0.36015551525925926 4.099560789333334 0.7277615028148148 7.639016941037036 1.107787776 10.618370882370371 0.3800262731851852 2.976869641481481 1.3089784414814816 7.637775397925925 2.7880980479999997 13.98023418311111 1.4778780634074073 6.342458785185185 2.599327668148148 11.370971742814813 3.359379000888889 15.088021959111112 0 8.93806061037037-0.5601034239999999 17.31601658311111-1.680310272 25.13387034548148-1.1202068479999998 7.81785376237037-3.5394573653333334 16.565900022518516-7.258991881481482 26.242899664592592-3.718292973037037 9.676999642074072-9.116896218074071 17.494852190814814-16.197051278222222 23.45480161659259-7.080156273777778 5.959948212148148-16.018215670518515 10.797206490074073-26.815422160592593 14.515499463111109-10.797206490074073 3.718292973037037-24.7662631442963 4.838499821037036-41.903444119703714 3.3606217576296302-17.138423732148148-1.479120820148148-36.50484087466666-5.947529140148148-58.100496611555556-13.406468930370371-26.07524158577778-8.93806061037037-52.520573458962964-22.154516404148143-79.33475407644443-39.651852894814816-26.814180617481483-17.494852190814814-50.09014662637037-35.74106369896296-69.8254137268148-54.73614901096297-19.735267100444442-18.99632806874074-37.80388454399999-37.43255149985185-54.2021264877037-55.3099142637037-16.398241943703702-17.878604306962963-29.067014599111108-32.40528129896296-38.00507399585185-43.584997148444444l-12.29868115437037-17.874878464000002c-24.575008464592592-32.03643255466667-42.81997721599999-64.0716223525926-54.737391767703706-96.1043290642963-11.917413338074075-32.03518979792593-17.5060297197037-56.24010797511111-16.76833223111111-72.61723761777779l0-23.45480161659259c4.482070148740741-35.752241227851854 15.469289775407406-67.78743102577778 32.96414196622222-96.1043290642963 17.494852190814814-28.31565528177778 38.35032613925926-51.22153100325925 62.56890614518519-68.71638319407408 24.218578792296295-17.494852190814814 52.71307089540741-32.391619470222224 85.4847166388148-44.69278492444444 32.77288728651852-12.29868115437037 64.24673211733334-21.236741764740742 94.4252603354074-26.815422160592593 30.176043918222224-5.577438852740741 62.021221793185184-9.48574496237037 95.53304811140741-11.728642958222222 55.13107865599999-4.480828605629629 112.30138034251851-0.2024322085925926 171.50718164385185 12.83518919111111 59.20828438755555 13.040104485925925 114.32694397155555 35.57588870637037 165.36094492444445 67.60983696118518 51.032759409777775 32.03518979792593 86.97625531733331 70.39793622281482 107.83048772266665 115.08947960414815 12.657595126518517 26.07648312888889 19.176405219555555 50.66142757925926 19.558914578962966 73.75979952355556 0.38250935940740743 23.097130401185183-3.528279836444444 41.903444119703714-11.728642958222222 56.417702039703705-8.200363121777778 14.515499463111109-18.81997554725926 27.36310651259259-31.856354190222216 38.5428235757037-13.036378642962964 11.179715849481482-25.323883482074073 19.380078971259255-36.86127054696296 24.59860506548148-11.537388278518518 5.218526094222223-21.774491344592594 8.567969109333333-30.71130919822222 10.04708992948148L745.3048577137778 370.0172827306667 745.3048577137778 370.0172827306667zM404.53960256474073 22.530785280000032c-80.44502615229631-3.7195345161481477-148.7813842868148 11.929832410074075-205.01155627614813 46.94437614933332-56.227688903111115 35.01454373925926-84.34215473303703 79.33599683318518-84.34091318992593 132.96684115437037 0 52.889422203259265 27.935630222222215 98.511159296 83.80564790992592 136.86396973511108 55.87125923081481 38.351568896 124.39763050192592 59.39829752414814 205.58159568592592 63.14018588444444 81.18396518399999 3.7406468171851848 149.7115779982222-9.665822113185186 205.5803541428148-40.2218923045926 55.87125923081481-30.556070191407407 83.80564790992592-72.2670180882963 83.80564790992592-125.13532799051852 0-53.63084553481482-28.49449088948148-101.86184506785185-85.48595818192594-144.69424256948147-56.990224535703696-42.831154744888885-124.95773392592592-66.10712075377778-203.9012854139259-69.82417097007406L404.53960256474073 22.530785280000032 404.53960256474073 22.530785280000032zM372.1479830945185 332.0482231940741c-21.594412980148146-2.2404136959999996-40.960831336296295-7.27016819674074-58.100496611555556-15.088021959111112-17.138423732148148-7.819095305481481-30.54489266251852-16.75715591585185-40.22065076148148-26.815422160592593-9.675758098962962-10.05950900148148-17.874878464000002-20.856715491555555-24.59860506548148-32.391619470222224-6.72248384474074-11.536145521777776-11.382148058074074-22.894698192592596-13.98023418311111-34.07317249896296-2.5980861250370366-11.17847430637037-4.277154853925926-21.416818915555556-5.040932029629629-30.71255074133333-0.7650199324444443-9.295731825777779-1.1326259199999997-16.552239407407406-1.1090293191111111-21.773248587851853l1.1090293191111111-8.939302153481481 0-4.469651076740741c0-2.2404136959999996 0.7501165605925926-6.70882322962963 2.2515912248888887-13.406468930370371 1.5014746642962962-6.69888845748148 3.550633680592592-12.848849806222221 6.149961348740741-18.44988525985185 2.599327668148148-5.601035453629629 6.877724065185185-11.750996802370368 12.83518919111111-18.448643716740737 5.958706669037038-6.697645700740741 13.038862942814813-12.28750483911111 21.237983307851852-16.76833223111111 49.17361353007407-23.834827889777774 94.9841222162963-31.092577014518515 137.435250688-21.773248587851853 42.44988692859259 9.319328426666665 76.71307256414813 30.73490579911111 102.78955569303703 64.24673211733334 10.439535274666666 12.656352369777778 17.328435655111107 28.304478966518516 20.666702354962965 46.94437614933332s2.586908596148148 37.44497057185185-2.2515912248888887 56.417702039703705c-4.839741364148148 18.97397301096296-13.217698550518518 36.28998959407407-25.13387034548148 51.95053526281482-11.916171794962963 15.659302911999998-29.60352142222222 27.767970929777775-53.059564581925926 36.324763723851845-23.45480161659259 8.556792794074074-50.46023691377777 10.977283640888889-81.0175486482963 7.258991881481482L372.1479830945185 332.0482231940741 372.1479830945185 332.0482231940741zM331.92360770370374 120.8519314394074c-4.480828605629629-0.7376974885925927-8.759225002666666-0.9289521682962962-12.83518919111111-0.5712809528888888-4.075964188444444 0.35642967229629624-7.805433476740742 1.1090293191111111-11.189651835259259 2.2515912248888887-3.3854599016296296 1.1425619057777776-6.733661373629629 2.4416043614814815-10.04708992948148 3.8958870376296297-3.312187012740741 1.4530399194074073-6.101526603851852 3.5021989357037033-8.36553811437037 6.149961348740741-2.2627687537777774 2.6465208699259257-4.313169313185186 5.257024853333332-6.149961348740741 7.83027283437037-1.8367920355555554 2.573246767407407-3.327089170962963 5.553842251851851-4.469651076740741 8.93806061037037-1.1438034488888889 3.3867014447407406-1.7039068728888889 6.924916053333334-1.680310272 10.618370882370371 0 8.200363121777778 2.2404136959999996 16.208228807111112 6.72124230162963 24.02608256948148 4.480828605629629 7.81785376237037 10.63078995437037 14.52791853511111 18.448643716740737 20.13019553185185 7.81785376237037 5.601035453629629 16.565900022518516 8.771644074666664 26.244142421333333 9.510583106370369 6.697645700740741 0.7376974885925927 13.216457007407406 0.547684352 19.557673035851852-0.5725224959999999 6.341216028444444-1.118965304888889 11.739819273481482-2.978111184592593 16.197051278222222-5.577438852740741 4.4572320047407405-2.599327668148148 8.366779657481482-5.578680395851851 11.728642958222222-8.939302153481481 3.361863300740741-3.359379000888889 5.781112604444445-7.268926653629628 7.258991881481482-11.727400201481483 1.4766365202962966-4.459716304592592 2.227994624-9.298216125629631 2.2515912248888887-14.51674100622222 0-8.199121578666668-2.4192493037037037-16.01697412740741-7.258991881481482-23.453560073481476-4.838499821037036-7.437827489185184-11.357309914074076-13.766624445629628-19.557673035851852-18.985150539851855-8.200363121777778-5.218526094222223-17.138423732148148-8.199121578666668-26.815422160592593-8.939302153481481L331.92360770370374 120.8519314394074 331.92360770370374 120.8519314394074zM426.88537486222225 201.29695759170363c-5.219767637333333-3.718292973037037-10.619612425481481-5.3986032450370365-16.198294034962963-5.040932029629629-5.577438852740741 0.3576712154074074-9.48574496237037 2.7769217327407407-11.727400201481483 7.258991881481482l-2.2528327679999998 4.469651076740741c-0.7376974885925927 1.5014746642962962-1.107787776 2.991773013333334-1.107787776 4.469651076740741l0 4.469651076740741c0 2.2404136959999996 0.37009028740740746 4.099560789333334 1.107787776 5.578680395851851l2.2528327679999998 4.469651076740741c0.7376974885925927 1.5014746642962962 1.8579043365925925 2.621681512296296 3.359379000888889 3.359379000888889l3.359379000888889 4.469651076740741c5.959948212148148 4.482070148740741 11.728642958222222 6.341216028444444 17.304840267851848 5.578680395851851 5.577438852740741-0.7637771757037037 9.48574496237037-3.7431311170370374 11.728642958222222-8.939302153481481 2.239172152888889-2.979353941333334 3.168124321185185-6.328796956444444 2.7868565048888887-10.04708992948148-0.3812678162962963-3.718292973037037-1.5014746642962962-7.257749124740741-3.359379000888889-10.618370882370371-1.8591458797037037-3.3606217576296302-4.278396397037037-6.529987621925926-7.258991881481482-9.509341563259259L426.88537486222225 201.29695759170363 426.88537486222225 201.29695759170363zM823.5330667709629 434.83777888711114c4.480828605629629 0 8.581630938074074 1.1202068479999998 12.29868115437037 3.3606217576296302 3.718292973037037 2.239172152888889 6.697645700740741 5.028512957629629 8.93806061037037 8.36429535762963 2.2416564527407408 3.3382666998518515 3.731953588148148 6.877724065185185 4.469651076740741 10.618370882370371 0.7389390317037037 0.7389390317037037 1.1090293191111111 1.8591458797037037 1.1090293191111111 3.3606217576296302 8.93681785362963 84.92585475792592-20.8579582482963 133.34686742755557-89.38432830577777 145.26552352237036-20.117776459851846 3.718292973037037-38.7452557842963 4.087141717333333-55.8824367597037 1.107787776-5.219767637333333 0-9.689418714074074-1.2990424557037037-13.406468930370371-3.8958870376296297-3.718292973037037-2.5980861250370366-6.8889003804444435-5.9450460539259256-9.510583106370369-10.04708992948148-2.621681512296296-4.099560789333334-3.9207251816296296-8.37919872948148-3.8958870376296297-12.83518919111111 0-7.460181333333334 2.610505197037037-13.787736746666665 7.83027283437037-18.98390899674074 5.219767637333333-5.1961710364444444 11.548564593777776-7.806676233481481 18.985150539851855-7.83027283437037 58.110431383703705 13.418888002370368 89.39426307792593-5.207348565333333 93.85149508266666-55.8824367597037 1.5014746642962962-12.656352369777778 0.7501165605925926-24.57376692148148-2.2515912248888887-35.752241227851854 0-7.4614240900740745 2.610505197037037-13.788979503407408 7.83027283437037-18.985150539851855 5.218526094222223-5.1961710364444444 11.548564593777776-7.806676233481481 18.98390899674074-7.83027283437037L823.5330667709629 434.83777888711114 823.5330667709629 434.83777888711114zM804.5479162311111 749.8966411946667c-32.774130043259255 7.460181333333334-76.72673317925926 5.969884197925925-131.85905337837036-4.470892619851852-0.7376974885925927 0-1.4890555922962965-0.3688487442962963-2.2515912248888887-1.107787776l-1.107787776-2.2515912248888887-1.107787776-1.107787776c-8.199121578666668-2.2404136959999996-14.909186351407406-6.900077909333333-20.128953988740744-13.98023418311111-5.219767637333333-7.080156273777778-7.829030077629629-14.719173214814814-7.829030077629629-22.917052036740742 0-11.17847430637037 3.7294705019259258-20.486625204148144 11.189651835259259-27.92321115022222 7.460181333333334-7.437827489185184 16.398241943703702-11.16729677748148 26.815422160592593-11.189651835259259l3.359379000888889 0c0.7389390317037037 0 2.4192493037037037 0.3688487442962963 5.04217357274074 1.107787776 2.621681512296296 0.7376974885925927 5.409780773925926 1.2990424557037037 8.36429535762963 1.680310272 2.9557573404444444 0.3812678162962963 6.125123204740741 1.1313843768888887 9.510583106370369 2.2515912248888887 3.3842171448888885 1.1202068479999998 6.364812629333333 2.2404136959999996 8.939302153481481 3.3606217576296302 2.573246767407407 1.118965304888889 7.603002481777778 1.680310272 15.088021959111112 1.680310272 7.485019477333332 0 16.613093224296296-0.5613449671111111 27.38670311348148-1.680310272 10.773609889185185-1.1202068479999998 22.692265984000002-3.9095476527407405 35.75348277096296-8.36553811437037 13.062459543703703-4.4572320047407405 26.100079729777775-10.04708992948148 39.11410452859259-16.76833223111111 13.014024798814814-6.720000758518519 26.05164498488889-16.028151656296295 39.11410452859259-27.92321115022222 13.062459543703703-11.893816737185183 24.421011000888885-25.6716187117037 34.07317249896296-41.32968008059259 19.37883742814815-43.952604349629624 23.10954947318519-86.41615189333334 11.189651835259259-127.38940230162963 0-0.7389390317037037-0.1900131365925926-1.4902971354074073-0.5712809528888888-2.2528327679999998-0.3812678162962963-0.7625356325925926-0.940129697185185-2.621681512296296-1.6790687288888888-5.577438852740741-0.7389390317037037-2.9557573404444444-1.4902971354074073-5.7438553884444445-2.2515912248888887-8.36553811437037-0.7637771757037037-2.621681512296296-1.513893736296296-5.969884197925925-2.2528327679999998-10.04708992948148-0.7389390317037037-4.075964188444444-1.107787776-7.615421553777777-1.107787776-10.618370882370371 0-6.697645700740741 1.8591458797037037-12.28626208237037 5.578680395851851-16.767090688 3.718292973037037-4.480828605629629 8.37919872948148-7.651436013037036 13.98023418311111-9.510583106370369 5.601035453629629-1.8591458797037037 12.121087089777777-2.7880980479999997 19.557673035851852-2.7868565048888887 20.856715491555555 0 33.14422033066667 12.668772655407405 36.86127054696296 38.006316752592596 8.93806061037037 29.054595527111108 13.967815111111108 56.800211399111106 15.088021959111112 83.2331242002963 1.121448391111111 26.435397101037037-0.7376974885925927 49.708878810074076-5.577438852740741 69.8254137268148-4.839741364148148 20.11653491674074-12.097491702518518 38.924091392-21.774491344592594 56.41894358281482-9.675758098962962 17.494852190814814-20.855473948444445 32.39286222696296-33.53666567585185 44.690301838222226-12.679948970666667 12.29868115437037-26.839018761481483 23.47715546074074-42.47472507259259 33.53666567585185-15.635706311111113 10.05826745837037-30.72372827022222 18.067375900444446-45.26406587733333 24.02608256948148-14.539096064 5.958706669037038-29.62711802311111 10.797206490074073-45.262824334222216 14.515499463111109L804.5479162311111 749.8991254945186 804.5479162311111 749.8966411946667z"  horiz-adv-x="1024" />

    
    <glyph glyph-name="shoucang" unicode="&#59049;" d="M958.0625 506.375c0 148.7125-116.625 269.7125-260.0625 269.7125-70.6875 0-137.75-30.625-186.125-82.5875-48.3375 52.0625-115.375 82.65-186.0625 82.65-143.275 0-259.9-121-259.9-269.75 0-4.875 0.4-9.4 0.8375-12.9625-0.0625-1.2875-0.15-2.4125-0.15-3.65 0-26.375 6.375-55.275 18.9625-86.0875 0.4-1.125 0.8125-2.1625 1.2125-3.2125 79.25-190.0875 384.15-408.65 397.125-418.5875 8.025-6.25 17.65-9.1875 27.1875-9.1875 9.8125 0 19.5 3.125 27.5875 9.4375 11.025 8.6875 271.125 195.875 374.375 373.025 3.9375 6 6.8125 11.75 9.5 16.8375 0.75 1.5625 1.5 3.125 2.3125 4.6875l0.375 0.6875c0.3125 0.6875 0.6875 1.2875 1.0625 1.875 6.3125 12.0625 11.125 23.1875 15.125 34.0875 10.75 28.0625 16.0625 53.0625 16.0625 76.5 0 1.7125-0.1875 3.4-0.3125 4.7125C957.5 497.375 958.0625 501.5375 958.0625 506.375zM886 501.8125c0-19.65-4.3125-40.625-13.4375-64.15-3.3125-9.2125-7.4375-18.625-12.5625-28.6875-0.4375-0.5625-0.75-1.0875-0.9375-1.5625l-0.375-0.625c-0.6875-1.275-1.25-2.5625-2-3.875-2.1875-4.3125-4.5625-9.0875-7.9375-14.125C762.0625 239.875 543.625 64.375 534.3125 57.125c-6.8125-5.375-14.9625-7.9375-23.1875-7.9375-8.0625 0-16.15 2.5625-22.8375 7.6875-10.9375 8.4375-263.9375 213.3125-330.5 373.0625-0.3125 0.8375-0.65 1.7125-1 2.625-10.5 25.8125-15.875 43.6875-15.875 65.7125 0 1.0625 0 2.0875 0.0875 3.0875-0.2875 3.0625-0.7125 6.775-0.7125 10.9625 0 124.9375 97.125 201.625 215.3125 184.1875 58.6875-8.5875 115.65-50.125 156.3375-93.775 40.525 43.65 97.5 85.1875 156.25 93.775 118.3125 17.4375 218.4375-55.8125 218.4375-180.75 0-4.025-0.5-7.5-0.75-10.025C885.875 504.625 886 503.3125 886 501.8125z"  horiz-adv-x="1024" />

    
    <glyph glyph-name="ren" unicode="&#58915;" d="M1018.24 52.736c0-0.032 0.016-0.064 0.016-0.096 0-17.328-14.096-31.376-31.504-31.376H752.08c17.6 3.856 30.768 19.44 30.768 38.144v0.096h0.016s0 142.576-104.496 194.4c-44.688 22.16-47.648 17.936-69.84 23.184l0.624 61.76s-24.384 18.576-31.968 76.928c-15.28-4.4-20.32 17.856-21.2 32.016-0.848 13.696-8.848 56.464 9.76 52.624-3.808 28.544-6.56 54.304-5.2 67.952 4.672 47.888 50.96 97.92 122.24 101.568 83.856-3.648 117.072-53.664 121.744-101.52 1.328-13.664-1.648-39.424-5.456-67.936 18.64 3.792 10.544-38.896 9.632-52.592-0.832-14.192-6-36.352-21.216-31.984-7.632-58.304-32-76.752-32-76.752l0.56-61.68s15.44-8.784 80.576-35.68c65.152-26.912 44.72-6.784 97.776-33.072 83.872-41.616 83.872-155.984 83.872-155.984h-0.032zM545.664 263.68c71.632-29.616 49.152-7.456 107.488-36.384 92.192-45.712 92.192-171.44 92.192-171.44h-0.016c0-0.048 0.016-0.064 0.016-0.096 0-19.056-15.52-34.496-34.64-34.496H41.376c-19.12 0-34.624 15.44-34.624 34.496v0.096h-0.016s0 125.712 92.192 171.456c58.336 28.928 35.872 5.456 107.488 35.04 71.6 29.552 88.576 39.872 88.576 39.872l0.672 68.128s-26.816 20.448-35.136 84.56c-16.768-4.832-22.336 19.632-23.328 35.216-0.912 15.04-9.696 62.064 10.768 57.824-4.192 31.392-7.2 59.696-5.728 74.672 5.152 52.656 56 107.664 134.368 111.664 92.176-4 128.672-58.976 133.792-111.584 1.504-15.008-1.792-43.328-5.984-74.672 20.48 4.192 11.584-42.752 10.576-57.808-0.896-15.584-6.576-39.968-23.312-35.136-8.368-64.112-35.2-84.4-35.2-84.4l0.64-67.792s16.96-9.648 88.544-39.216"  horiz-adv-x="1024" />

    
    <glyph glyph-name="pinglunliang_icon" unicode="&#58981;" d="M869.062743 822.706717H154.93521c-51.030234 0-92.546789-41.46846-92.546789-92.449575v-527.715937c0-51.02921 41.516556-92.497671 92.546789-92.497671h41.955554v-126.502135c0-15.465227 9.318226-29.418007 23.612791-35.320437 4.731768-2.000564 9.658987-2.927679 14.635325-2.927679a38.198997 38.198997 0 0 1 27.027563 11.220553L439.991478 134.339894c14.97711 14.927991 14.97711 39.125089 0 54.103222-14.879895 14.976086-39.175231 14.976086-54.103222 0L273.386996 75.941855v72.350819c0 21.12411-17.172101 38.248116-38.248116 38.248115h-80.20367c-8.879228 0-16.050558 7.219425-16.050558 16.001439V730.257142c0 8.782014 7.17133 15.953344 16.050558 15.953343h714.12651c8.879228 0 16.051581-7.17133 16.051581-15.953343v-527.715937c0-8.782014-7.172353-16.001439-16.051581-16.001439H512.583796c-21.12411 0-38.248116-17.124006-38.248116-38.248116 0-21.076014 17.124006-38.248116 38.248116-38.248116h356.477924c51.030234 0 92.546789 41.467437 92.546789 92.497671V730.257142c0.001023 50.981115-41.515532 92.449575-92.545766 92.449575zM272.510022 470.766133c0-34.784224 28.247344-62.98245 63.031569-62.98245 34.83232 0 62.98245 28.198226 62.98245 62.98245 0 34.735106-28.15013 63.031569-62.98245 63.031568-34.785248 0-63.031569-28.296463-63.031569-63.031568zM575.031057 470.766133c0 34.735106-28.15013 63.031569-62.983473 63.031568-34.783201 0-63.031569-28.29544-63.031569-63.031568 0-34.784224 28.247344-62.98245 63.031569-62.98245 34.833343 0 62.983473 28.198226 62.983473 62.98245zM751.487931 470.766133c0 34.735106-28.198226 63.031569-62.98245 63.031568-34.783201 0-62.98245-28.29544-62.98245-63.031568 0-34.784224 28.199249-62.98245 62.98245-62.98245 34.784224 0 62.98245 28.198226 62.98245 62.98245z"  horiz-adv-x="1024" />

    
    <glyph glyph-name="xiazai1" unicode="&#59035;" d="M339.7506844444444 447.4936888888889l144.16896-160.1877333333333c8.791608888888888-9.762133333333333 21.541546666666665-15.907271111111108 35.71370666666667-15.907271111111108s26.90616888888889 6.146275555555556 35.729635555555554 15.907271111111108v0l144.16896 160.1877333333333c7.6663466666666675 8.519680000000001 12.327822222222222 19.782542222222222 12.327822222222222 32.149048888888885 0 26.54663111111111-21.494897777777776 48.05632000000001-48.05632000000001 48.05632000000001-14.173297777777778 0-26.938026666666662-6.13376-35.729635555555554-15.91182222222222v0l-60.38414222222222-67.10158222222222v291.25745777777774c0 26.54663111111111-21.494897777777776 48.05632000000001-48.05632000000001 48.05632000000001-26.53070222222222 0-48.05518222222222-21.511964444444445-48.05518222222222-48.05632000000001v-291.25745777777774l-60.38414222222222 67.10158222222222c-8.791608888888888 9.762133333333333-21.557475555555552 15.91182222222222-35.729635555555554 15.91182222222222-26.53070222222222 0-48.05632000000001-21.511964444444445-48.05632000000001-48.05632000000001 0-12.366506666666666 4.693333333333333-23.62936888888889 12.343751111111112-32.149048888888885v0zM888.0685511111112 351.4914133333333c-26.53070222222222 0-48.05518222222222-21.511964444444445-48.05518222222222-48.05632000000001v-192.22641777777778h-640.7554844444444v192.22641777777778c0 26.54663111111111-21.494897777777776 48.05632000000001-48.05632000000001 48.05632000000001-26.53070222222222 0-48.05632000000001-21.511964444444445-48.05632000000001-48.05632000000001v-240.28273777777778c0-26.54890666666666 21.526755555555557-48.05632000000001 48.05632000000001-48.05632000000001h368.43292444444444c0.030719999999999997 0 0.030719999999999997 0 0.06257777777777777 0h368.3714844444445c26.563697777777772 0 48.05632000000001 21.50855111111111 48.05632000000001 48.05632000000001v240.28273777777778c0 26.54663111111111-21.494897777777776 48.05632000000001-48.05632000000001 48.05632000000001z"  horiz-adv-x="1024" />

    
    <glyph glyph-name="biaoqing-xue" unicode="&#58930;" d="M508.544 829.12c-247.074-0.255-447.297-200.479-447.552-447.528 0.255-247.098 200.479-447.321 447.528-447.576 247.098 0.255 447.321 200.479 447.576 447.528-0.255 247.098-200.479 447.321-447.528 447.576zM508.544-1.984c-211.727 0.255-383.297 171.825-383.552 383.528 0.255 211.752 171.825 383.321 383.528 383.576 211.752-0.255 383.321-171.825 383.576-383.528-0.255-211.752-171.825-383.321-383.528-383.576zM319.488 491.52c0-26.51 21.49-48 48-48s48 21.49 48 48c0 26.51-21.49 48-48 48-26.51 0-48-21.49-48-48zM587.52 491.52c0-26.51 21.49-48 48-48s48 21.49 48 48c0 26.51-21.49 48-48 48-26.51 0-48-21.49-48-48zM669.248 282.944c-4.878 3.175-10.847 5.064-17.257 5.064-11.248 0-21.138-5.815-26.828-14.603-20.876-32.573-68.044-53.565-120.14-53.565-52.096 0-99.2 20.928-120 53.376-5.714 9.274-15.814 15.364-27.336 15.364-17.673 0-32-14.327-32-32 0-6.662 2.036-12.848 5.519-17.971 32.697-51.025 99.321-82.769 173.817-82.769 74.56 0 141.184 31.744 173.952 82.944 3.149 4.869 5.021 10.82 5.021 17.208 0 11.267-5.823 21.174-14.624 26.876z"  horiz-adv-x="1024" />

    
    <glyph glyph-name="gouwuche" unicode="&#58959;" d="M658.42926933 185.19108267000001h-222.93162666c-78.81250133 0-156.4672 46.956544-176.78882134 106.90013866a18405.965824 18405.965824 0 0 1-25.96317866 76.25659734l0.262144 0.09284266a94.19707733 94.19707733 0 0 0-3.06926934 8.536064l-5.90370133 18.67776c-4.95342933 15.70679467-11.76917333 37.38282667-19.2512 61.21608534l-12.910592 41.12930133c-16.27477333 51.85536-16.27477333 51.85536-16.27477333 58.556416a43.69066667 43.69066667 0 0 0 43.69066666 43.69066667h655.36a43.70158933 43.70158933 0 0 0 43.69066667-43.69066667c0-6.72290133 0-6.72290133-29.19082667-99.69117867-7.48202667-23.83325867-14.29777067-45.50382933-19.24573866-61.210624l-5.90370134-18.67776c-0.65536-2.064384-1.61109333-5.06811733-3.05288533-8.486912l0.25668267-0.09284266c-1.03765333-2.92727467-11.72548267-34.28625067-25.97956267-76.31121067-20.332544-59.94359467-97.992704-106.89467733-176.79428267-106.89467733zM314.949632 397.33111467c0.802816-1.87869867 1.55648-3.84477867 2.26645333-5.90370134l5.69070934-16.67345066a35179.61557333 35179.61557333 0 0 0 18.546688-54.607872c7.46018133-22.003712 50.16234667-47.57367467 94.03869866-47.57367467h222.93162667c43.87089067 0 86.57851733 25.575424 94.03869867 47.579136 7.20896 21.26097067 13.77348267 40.58862933 18.546688 54.607872l5.69070933 16.66798933c0.70997333 2.05346133 1.46363733 4.02500267 2.26645333 5.90370134l-0.19114666 0.065536c1.032192 3.129344 11.649024 36.765696 26.98990933 85.65009066l9.36618667 29.82980267H278.78468267l9.36072533-29.82980267c15.34088533-48.87893333 25.952256-82.51528533 26.98990933-85.65009066l-0.18568533-0.065536zM301.19253333 255.98088532999998a43.70705067 43.70705067 0 0 0-41.52251733 30.130176L107.83402667 750.58107733a43.69066667 43.69066667 0 0 0 27.951104 55.10485334c22.921216 7.503872 47.60644267-5.01896533 55.10485333-27.951104l151.84145067-464.47547734a43.69066667 43.69066667 0 0 0-41.53890134-57.278464zM333.96599467 74.84484267000005m-70.99733334 0a70.99733333 70.99733333 0 1 1 141.99466667 0 70.99733333 70.99733333 0 1 1-141.99466667 0ZM749.027328 74.84484267000005m-70.99733333 0a70.99733333 70.99733333 0 1 1 141.99466666 0 70.99733333 70.99733333 0 1 1-141.99466666 0Z"  horiz-adv-x="1024" />

    
    <glyph glyph-name="web-quit" unicode="&#59039;" d="M782 682.5000002929687c-25.49999970703125 20.99999970703125-63 18-83.99999970703125-7.5000005859375-20.99999970703125-25.49999970703125-18-63 7.49999970703125-83.99999970703125 67.5-56.99999970703126 105.00000029296875-139.5 105.00000029296875-226.50000029296874 0-163.50000029296874-133.49999970703126-297-297-297s-297 133.49999970703126-297 297c0 87.00000029296875 38.99999970703125 171 104.9999994140625 226.50000029296874 25.49999970703125 20.99999970703125 28.50000029296875 60.00000029296874 7.5000005859375 83.99999970703125-20.99999970703125 25.49999970703125-60.00000029296874 28.50000029296875-84.0000005859375 7.5000005859375-94.5-79.49999970703125-148.5-196.49999970703126-148.5-319.49999999999994 0-231.00000029296874 187.49999970703126-416.99999970703124 417.00000058593747-417.00000058593747s416.99999970703124 187.49999970703126 416.99999970703124 417.00000058593747c-1.50000029296875 124.49999970703124-55.50000029296875 240.00000029296874-148.5 319.49999999999994zM512 240c33.00000029296875 0 60.00000029296874 26.999999999999996 60.00000029296874 60.00000029296874V762c0 33.00000029296875-26.999999999999996 60.00000029296874-60.00000029296874 60.00000029296874s-60.00000029296874-26.999999999999996-60.00000029296874-60.00000029296874v-461.99999970703124c0-33.00000029296875 26.999999999999996-60.00000029296874 60.00000029296874-60.00000029296874z"  horiz-adv-x="1024" />

    
    <glyph glyph-name="arrowright" unicode="&#58884;" d="M814.48 576.437c9.571 0 12.392-6.017 6.264-13.372l-297.761-357.393c-6.128-7.356-16.154-7.356-22.281 0l-297.761 357.392c-6.128 7.355-3.309 13.372 6.264 13.372h605.275z"  horiz-adv-x="1024" />

    
    <glyph glyph-name="wenjianjia" unicode="&#59191;" d="M891.38 2.6820000000000164H131.467c-37.255 0-67.546 31.493-67.546 70.223V687.593c0 38.73 30.29 70.25 67.546 70.25h322.927a41.918 41.918 0 0 0 37.174-22.506l106.631-201.245H875.02c37.255 0 83.907-45.175 83.907-83.907v-377.28c0-38.73-30.291-70.223-67.546-70.223zM182.767 86.59000000000003H840.08c19.296 0 34.939 15.643 34.939 34.94v287.26c0 22.863-18.534 41.396-41.396 41.396H572.797a41.918 41.918 0 0 0-37.174 22.507l-96.786 182.664a34.939 34.939 0 0 1-30.872 18.58h-225.2c-19.295 0-34.938-15.642-34.938-34.938v-517.47c0-19.296 15.643-34.939 34.939-34.939zM833.864 464.177c-23.509-0.439-42.751 19.264-42.751 42.776v53.109c0 16.55-13.418 29.967-29.968 29.967H504.982c-23.512 0-43.214 19.243-42.776 42.751 0.426 22.794 19.05 41.156 41.946 41.156h300.945c38.567 0 69.923-45.34 69.923-83.907v-83.907c0-22.894-18.362-41.52-41.156-41.945z"  horiz-adv-x="1024" />

    
    <glyph glyph-name="Listmode" unicode="&#58934;" d="M97.52381 676.571429c0 26.940952 21.74781 48.761905 48.761904 48.761904h731.428572c26.940952 0 48.761905-21.650286 48.761904-48.761904 0-26.940952-21.74781-48.761905-48.761904-48.761905H146.285714c-26.940952 0-48.761905 21.650286-48.761904 48.761905z m0-268.190477c0 26.940952 21.74781 48.761905 48.761904 48.761905h731.428572c26.940952 0 48.761905-21.650286 48.761904-48.761905 0-26.940952-21.74781-48.761905-48.761904-48.761904H146.285714c-26.940952 0-48.761905 21.650286-48.761904 48.761904z m0-268.190476c0 26.940952 21.74781 48.761905 48.761904 48.761905h731.428572c26.940952 0 48.761905-21.650286 48.761904-48.761905 0-26.940952-21.74781-48.761905-48.761904-48.761905H146.285714c-26.940952 0-48.761905 21.650286-48.761904 48.761905z"  horiz-adv-x="1024" />

    
    <glyph glyph-name="shoucang1" unicode="&#58899;" d="M707.584 802.816c-77.312 0-148.992-38.912-196.608-102.912-47.104 64-119.296 102.912-196.608 102.912-139.264 0-252.416-123.904-252.416-275.968 0-90.624 40.448-154.624 73.216-205.824 94.72-148.992 333.312-333.824 343.552-341.504 9.728-7.68 20.992-11.264 32.256-11.264s22.528 3.584 32.256 11.264c10.24 7.68 248.32 193.024 343.552 341.504 32.768 51.2 73.216 115.2 73.216 205.824 0 152.064-113.152 275.968-252.416 275.968z"  horiz-adv-x="1024" />

    
    <glyph glyph-name="jiantou" unicode="&#58902;" d="M671.589 384.289l-270.231 270.189c-2.575 2.818-5.689 5.096-9.184 6.68-2.56 5.106-20.288 5.106-31.223-5.829-10.935-10.935-10.935-28.663 0-39.598 0.278-0.278 0.564-0.545 0.851-0.809l-0.021-0.021 230.691-230.691-231.94-231.94c-10.935-10.935-10.935-28.663 0-39.598s28.663-10.935 39.598 0l271.459 271.617z"  horiz-adv-x="1024" />

    
    <glyph glyph-name="erweima1" unicode="&#59266;" d="M184.32 493.11744V711.6800000000001l218.45333333333335 0.10922666666666667 0.10922666666666667-218.56256L184.32 493.11744zM402.88256 784.4977777777777H184.21077333333335A72.81777777777778 72.81777777777778 0 0 1 111.50222222222226 711.7892266666667v-218.6717866666667A72.81777777777778 72.81777777777778 0 0 1 184.21077333333335 420.4088888888889h218.6717866666667A72.81777777777778 72.81777777777778 0 0 1 475.5911111111111 493.11744V711.7892266666667A72.81777777777778 72.81777777777778 0 0 1 402.88256 784.4977777777777zM184.32 56.210773333333236V274.7733333333333l218.45333333333335 0.10922666666666667 0.10922666666666667-218.56256L184.32 56.210773333333236zM402.88256 347.5911111111111H184.21077333333335A72.81777777777778 72.81777777777778 0 0 1 111.50222222222226 274.88256v-218.6717866666667A72.81777777777778 72.81777777777778 0 0 1 184.21077333333335-16.497777777777856h218.6717866666667A72.81777777777778 72.81777777777778 0 0 1 475.5911111111111 56.210773333333236v218.6717866666667A72.81777777777778 72.81777777777778 0 0 1 402.88256 347.5911111111111zM621.2266666666667 493.11744V711.6800000000001l218.45333333333335 0.10922666666666667 0.10922666666666667-218.56256-218.56256-0.10922666666666667zM839.7892266666668 784.4977777777777h-218.6717866666667A72.81777777777778 72.81777777777778 0 0 1 548.4088888888889 711.7892266666667v-218.6717866666667A72.81777777777778 72.81777777777778 0 0 1 621.11744 420.4088888888889h218.6717866666667A72.81777777777778 72.81777777777778 0 0 1 912.4977777777779 493.11744V711.7892266666667A72.81777777777778 72.81777777777778 0 0 1 839.7892266666668 784.4977777777777zM730.4533333333333 274.7733333333333a36.40888888888889 36.40888888888889 0 0 1-36.40888888888889-36.40888888888889v-218.45333333333335a36.40888888888889 36.40888888888889 0 0 1 72.81777777777778 0v218.45333333333335a36.40888888888889 36.40888888888889 0 0 1-36.40888888888889 36.40888888888889M584.8177777777778 274.7733333333333a36.40888888888889 36.40888888888889 0 0 1-36.40888888888889-36.40888888888889v-218.45333333333335a36.40888888888889 36.40888888888889 0 0 1 72.81777777777778 0v218.45333333333335a36.40888888888889 36.40888888888889 0 0 1-36.40888888888889 36.40888888888889M876.0888888888887 347.5911111111111a36.40888888888889 36.40888888888889 0 0 1-36.40888888888889-36.40888888888889v-291.2711111111111a36.40888888888889 36.40888888888889 0 0 1 72.81777777777778 0v291.2711111111111a36.40888888888889 36.40888888888889 0 0 1-36.40888888888889 36.40888888888889"  horiz-adv-x="1024" />

    
    <glyph glyph-name="shouye" unicode="&#59020;" d="M958.27368406 411.61263187L527.36 801.37263188a46.96421062 46.96421062 0 0 1-64.26947344-1.26315844L64.38736812 410.37473719a46.8631575 46.8631575 0 1 1 65.58315844-67.02315844l27.30947344 26.67789469v-368.61473625C157.28-24.505262809999977 178.27368406-45.47368405999998 204.19368406-45.47368405999998h178.02947344a46.88842125 46.88842125 0 0 1 46.913685 47.01473625l0.53052563 144h164.79157968l-0.90947437-144.15157875c0-25.89473719 20.99368406-46.8631575 46.88842125-46.8631575h182.98105312c25.94526281 0 46.91368406 20.96842125 46.91368406 46.8631575v274.86315844a46.8631575 46.8631575 0 0 1-93.75157968-1e-8v-227.94947437h-88.32v144.15157969a46.88842125 46.88842125 0 0 1-46.88842032 46.88842031H382.65263187c-12.48 0-24.42947344-4.95157875-33.19578937-13.79368406a46.81263187 46.81263187 0 0 1-13.69263187-33.22105219l0.35368406-144.02526375H251.10736812V461.73473719l246.03789469 240.50526281 398.19789469-360.15157875c8.96842125-8.10947344 20.26105219-12.10105219 31.45263187-12.10105312a46.8631575 46.8631575 0 0 1 31.47789469 81.62526374z"  horiz-adv-x="1024" />

    
    <glyph glyph-name="huoyan1" unicode="&#58897;" d="M314 422.1s97.6 93.8 119.6 138.5c21.9 44.6 59 130.1 45.4 264.8 0 0 130.9-78.7 188.4-219.4S737 323 737 323s80.2 73.6 96.9 127.1c0 0 79.4-189.2 21.2-314.8S621.2-41 621.2-41s46.9 61.3 36.3 118.8-63.6 74.2-97.6 112c-34 37.8-35.6 117.3-30.3 138.5 0 0-173.3-99.1-189.2-168.7-15.9-69.6 27.2-164.2 73.4-196 0 0-135.4 39.3-196 100.6s-83.2 146-82.5 217.9c0.8 71.9 36.3 139.2 92.3 185.4S286 600.3 286 600.3s31.8-130.6 28-178.2z"  horiz-adv-x="1024" />

    
    <glyph glyph-name="kecheng1" unicode="&#58996;" d="M834.04549344 804.15001875H664.53610062v0.02302406H353.86225719v-0.02302406H191.78398625c-42.66994969 0-77.27656688-33.4621125-77.27656594-74.75347781v-686.09898469c0-42.36487687 33.93027563-76.703835 75.80492438-76.703835h654.24953812c41.87464875 0 60.17232281 35.55445406 61.08274594 77.84929875l1.12243875 686.09802562c-0.25902469 41.349885-30.05162531 73.60897313-72.72157406 73.60897313z m-58.67669719-765.57342188l-542.57453437 0.2100975c-34.86468188 0-46.80570563 10.32931687-46.80570657 44.01399844l0.60726844 614.16119906c0 33.17047031 3.01427625 35.75303906 37.78494188 35.75303907h129.4805325V397.07209687l146.56175062 102.01147688 164.43827156-101.71983469-0.26957718 335.35023281h129.09583312c35.72905594 0 38.81336437-2.58256875 38.81336438-35.75303906l-0.14006532-610.65669468c0.00191906-60.730665 5.00300813-47.72764031-56.99207906-47.72764124z m-182.10373406 693.81023719v-191.61472594l-0.18707344 0.16308938-95.71430532 47.85715312-71.78620874-47.85715312V732.27075281l167.6875875 0.11608125z"  horiz-adv-x="1024" />

    
    <glyph glyph-name="kecheng" unicode="&#58910;" d="M843.7411698242188 721.5v-731.34H263.2411698242188a84.42 84.42 0 0 0 0 168.84h525.24V834H235.52116982421882A111.96 111.96 0 0 1 125.00116982421878 721.5v-675A111.78 111.78 0 0 1 235.52116982421882-66H899.0011698242188V721.5zM263.2411698242188 102.65999999999997a28.08 28.08 0 0 1 0-56.34h525.24v56.34z"  horiz-adv-x="1024" />

    
    <glyph glyph-name="tupian" unicode="&#59281;" d="M288 416c54.4 0 96 41.6 96 96s-41.6 96-96 96-96-41.6-96-96 41.6-96 96-96z m0 128c19.2 0 32-12.8 32-32s-12.8-32-32-32-32 12.8-32 32 12.8 32 32 32zM864 736h-704c-54.4 0-96-41.6-96-96v-512c0-54.4 41.6-96 96-96h704c54.4 0 96 41.6 96 96v512c0 54.4-41.6 96-96 96z m-736-608v512c0 19.2 12.8 32 32 32h704c19.2 0 32-12.8 32-32v-364.8l-169.6 169.6c-38.4 38.4-99.2 38.4-134.4 0l-348.8-348.8h-83.2c-19.2 0-32 12.8-32 32z m736-32h-531.2l304 304c12.8 12.8 32 12.8 44.8 0l214.4-214.4v-57.6c0-19.2-12.8-32-32-32z"  horiz-adv-x="1024" />

    
    <glyph glyph-name="fenxiao" unicode="&#58904;" d="M381.952 356.864h-31.744v16.384h31.744c14.848 0 26.112 8.704 26.112 19.968s-11.776 19.968-26.112 19.968h-17.408l38.4 66.048c4.096 6.656 5.12 14.848 3.584 21.504-1.024 5.12-4.608 9.728-9.216 12.288-10.24 5.632-25.088 0-31.744-12.288L338.432 450.56c-9.728-17.92-10.24-19.456-10.24-19.456l-0.512-1.024c-12.8 25.088-36.352 68.608-37.376 71.168-6.656 12.288-22.016 17.92-32.256 11.776-4.608-3.072-8.192-7.68-9.728-12.8-2.048-6.656-0.512-14.336 3.072-20.992l35.84-61.952 2.048-3.584h-18.944c-14.848 0-26.112-8.704-26.112-19.968s11.776-19.968 26.112-19.968h33.792v-16.384h-33.792c-14.848 0-26.112-8.704-26.112-20.48 0-10.752 10.24-18.944 24.576-19.968h35.84v-21.504c0-14.336 10.24-26.112 23.04-26.112s23.04 11.264 23.04 25.6V317.44h36.864c12.8 2.048 20.992 9.728 20.992 19.456-0.512 11.264-11.776 19.968-26.624 19.968zM817.152 541.696c82.944 0 150.528 67.584 150.528 150.528s-67.584 150.528-150.528 150.528-150.528-67.584-150.528-150.528c0-13.312 1.536-25.6 4.608-37.888l-138.752-92.16c-5.632 6.656-11.264 13.312-17.92 19.456-50.688 50.688-117.76 78.336-189.44 78.336s-138.752-27.648-189.44-78.336c-50.688-50.688-78.336-117.76-78.336-189.44s27.648-138.752 78.336-189.44c50.688-50.688 117.76-78.336 189.44-78.336 71.168 0 138.24 27.648 188.928 77.824l146.944-102.4c-6.144-14.336-9.216-30.72-9.216-47.104 0-23.04 6.144-44.544 17.408-62.976h-139.776c-16.384 0-30.208-13.312-30.208-30.208 0-16.384 13.312-30.208 30.208-30.208h247.296c67.584 1.024 121.856 55.808 121.856 123.392 0 68.096-55.296 123.392-123.392 123.392-29.696 0-56.832-10.24-77.824-27.648l-145.408 101.376c26.624 42.496 40.96 91.648 40.96 142.848 0 41.984-9.728 82.944-27.648 119.296l133.12 88.576c28.16-35.84 70.656-58.88 118.784-58.88z m0 248.832c54.272 0 98.304-44.032 98.304-98.304S871.424 593.92 817.152 593.92s-98.304 44.032-98.304 98.304 44.032 98.304 98.304 98.304z m-41.472-674.816c34.816 0 62.976-28.16 62.976-62.976s-28.16-62.976-62.976-62.976-62.976 28.16-62.976 62.976 28.16 62.976 62.976 62.976zM326.144 184.32c-114.688 0-207.872 93.184-207.872 207.872 0 114.688 93.184 207.872 207.872 207.872s207.872-93.184 207.872-207.872C533.504 277.504 440.32 184.32 326.144 184.32z"  horiz-adv-x="1024" />

    


  </font>
</defs>
</svg>
