<?xml version="1.0" standalone="no"?>
<!DOCTYPE svg PUBLIC "-//W3C//DTD SVG 1.1//EN" "http://www.w3.org/Graphics/SVG/1.1/DTD/svg11.dtd" >
<svg xmlns="http://www.w3.org/2000/svg">
<metadata>
Created by FontForge 20120731 at Fri Jul 21 16:59:56 2017
 By admin
</metadata>
<defs>
<font id="iconfont" horiz-adv-x="1024" >
  <font-face 
    font-family="iconfont"
    font-weight="500"
    font-stretch="normal"
    units-per-em="1024"
    panose-1="2 0 6 3 0 0 0 0 0 0"
    ascent="896"
    descent="-128"
    x-height="792"
    bbox="0 -154.524 1059 896.5"
    underline-thickness="0"
    underline-position="0"
    unicode-range="U+0078-E96A"
  />
<missing-glyph 
 />
    <glyph glyph-name=".notdef" 
 />
    <glyph glyph-name=".notdef" 
 />
    <glyph glyph-name=".null" horiz-adv-x="0" 
 />
    <glyph glyph-name="nonmarkingreturn" horiz-adv-x="341" 
 />
    <glyph glyph-name="x" unicode="x" horiz-adv-x="1001" 
d="M281 543q-27 -1 -53 -1h-83q-18 0 -36.5 -6t-32.5 -18.5t-23 -32t-9 -45.5v-76h912v41q0 16 -0.5 30t-0.5 18q0 13 -5 29t-17 29.5t-31.5 22.5t-49.5 9h-133v-97h-438v97zM955 310v-52q0 -23 0.5 -52t0.5 -58t-10.5 -47.5t-26 -30t-33 -16t-31.5 -4.5q-14 -1 -29.5 -0.5
t-29.5 0.5h-32l-45 128h-439l-44 -128h-29h-34q-20 0 -45 1q-25 0 -41 9.5t-25.5 23t-13.5 29.5t-4 30v167h911zM163 247q-12 0 -21 -8.5t-9 -21.5t9 -21.5t21 -8.5q13 0 22 8.5t9 21.5t-9 21.5t-22 8.5zM316 123q-8 -26 -14 -48q-5 -19 -10.5 -37t-7.5 -25t-3 -15t1 -14.5
t9.5 -10.5t21.5 -4h37h67h81h80h64h36q23 0 34 12t2 38q-5 13 -9.5 30.5t-9.5 34.5q-5 19 -11 39h-368zM336 498v228q0 11 2.5 23t10 21.5t20.5 15.5t34 6h188q31 0 51.5 -14.5t20.5 -52.5v-227h-327z" />
    <glyph glyph-name="lingdang" unicode="&#xe601;" 
d="M645 -52q6 0 -3.5 -15t-29 -33t-46 -33t-56.5 -15q-27 0 -52 15t-44 33t-29 33t-6 15h266zM893 33q7 -9 6.5 -17.5t-4.5 -14.5t-10 -9.5t-12 -3.5h-730q-14 0 -20.5 11.5t4.5 28.5q17 30 40 67t43.5 79.5t35.5 90t15 99.5q0 50 14 90t36.5 70t52 51t61.5 32
q-16 26 -16 54q0 41 28 69t69 28t69 -28t28 -69q0 -14 -4 -27.5t-11 -24.5q34 -11 64.5 -32t53 -52t36 -71t13.5 -89q0 -50 15 -98.5t36 -92t44.5 -79.5t42.5 -62v0zM467 661q0 -16 11 -27.5t27 -11.5h2q16 1 27 12t11 27q0 17 -11 28t-28 11t-28 -11t-11 -28v0z" />
    <glyph glyph-name="jinlingyingcaiwangtubiao29" unicode="&#xe6bc;" 
d="M788 -154q-4 0 -7 1l-268 109l-268 -109q-10 -4 -18.5 2.5t-7.5 16.5l20 288l-186 222q-7 8 -3.5 18t13.5 13l281 69l152 245q6 9 17 9t16 -9l153 -245l280 -69q11 -3 14 -13t-4 -18l-185 -222l20 -288q1 -10 -8 -17q-5 -3 -11 -3z" />
    <glyph glyph-name="icon5" unicode="&#xe600;" 
d="M346 600h-181v0q-7 0 -11.5 -5t-4.5 -11.5t4.5 -11t11.5 -4.5v0h181v0q7 0 11.5 4.5t4.5 11t-4.5 11.5t-11.5 5v0zM346 528h-181v0q-7 0 -11.5 -4.5t-4.5 -11.5t4.5 -11.5t11.5 -4.5v0h181v0q7 0 11.5 4.5t4.5 11.5t-4.5 11.5t-11.5 4.5v0zM851 317q25 -25 59 -25
q35 0 59.5 25t24.5 59.5t-25 59.5l-122 122q21 46 21 96q0 98 -69.5 167t-166.5 69t-166 -69t-69 -166.5t69 -166.5t166 -69q50 0 96 21zM479 654.5q0 63.5 45 108.5t108 45t108 -45t45 -108.5t-45 -108.5t-108 -45t-108 45t-45 108.5zM675.5 359q-11.5 0 -19.5 -8t-8 -19
v-176q0 -26 -19 -45t-45 -19h-219v153q0 49 -35 83.5t-84 34.5h-158v348q0 26 18.5 45t45.5 19h187q11 0 19.5 8t8.5 19.5t-8.5 19.5t-19.5 8h-187q-49 0 -84 -35t-35 -84v-378q0 -11 8 -19l270 -269q8 -8 19 -8h254q49 0 84 35t35 84v176q0 11 -8 19t-19.5 8zM311 245v-122
l-188 186h123q27 0 46 -18.5t19 -45.5z" />
    <glyph glyph-name="arrow-left-copy-copy" unicode="&#xe606;" 
d="M253 886l571 -438q30 -23 30 -63.5t-30 -63.5l-571 -439q-27 -21 -55 0.5t-28 63.5v877q0 42 28 63t55 0v0z" />
    <glyph glyph-name="chakan" unicode="&#xe64c;" 
d="M86 835h556l135 -135v-158h60v183v0l-170 171v0v0h-581h-60v-61v-829v-61h60h250v61h-250v829zM222 671h379v-61h-379v61zM229 445h158v-61h-158v61zM229 218h115v-61h-115v61zM857 66q58 69 58 159q0 101 -71.5 172.5t-172.5 71.5t-173 -71.5t-72 -172.5t72 -173
t173 -72q78 0 141 45l152 -152l43 43zM671 34q-79 0 -135 56t-56 135t56 135t135 56t135 -56t56 -135t-56 -135t-135 -56z" />
    <glyph glyph-name="gonggao" unicode="&#xe605;" 
d="M620 -47v64q141 30 225.5 130t84.5 237q0 138 -86 239.5t-224 127.5v64q159 -23 265.5 -145t106.5 -286t-106.5 -286t-265.5 -145zM466 14l-279 185h-93q-26 0 -44 18t-18 44v246q0 26 18 44t44 18h93l279 185q25 0 43 -18.5t18 -43.5v-616q0 -25 -18 -43.5t-43 -18.5z
M187 476q0 13 -9.5 22t-21.5 9h-31q-13 0 -22 -9t-9 -22v-184q0 -13 9 -22t22 -9h31q12 0 21.5 9t9.5 22v184v0zM466 76l-217 135v346l217 135v-616zM806 384q0 -81 -53 -141t-133 -71v61q54 11 89 53.5t35 97.5t-35 97.5t-89 53.5v61q80 -11 133 -71t53 -141z" />
    <glyph glyph-name="ren" unicode="&#xe623;" 
d="M1018 53v0q0 -13 -9 -22.5t-22 -9.5h-235q13 3 22 14t9 24v1v0q0 5 -0.5 15t-6.5 37.5t-15.5 51t-31 49.5t-51.5 41q-15 8 -26.5 12.5t-16.5 5.5t-13 2.5t-13 2.5v62q-3 2 -7 6.5t-12.5 24.5t-12.5 46q-10 -3 -15 7.5t-6 24.5q0 2 -1 11t-1 15t0.5 13.5t3 11t8.5 1.5
q-7 52 -5 68q3 39 37 69t85 33q58 -3 88 -32t34 -70q1 -15 -6 -68q5 2 8 -1.5t3.5 -11t0.5 -13.5t-1 -15t-1 -11q-1 -14 -6 -24.5t-16 -7.5q-3 -26 -11 -45t-14 -26l-7 -6l1 -62q16 -8 81 -35q31 -13 50.5 -16.5t46.5 -16.5q24 -12 41 -33t25 -40t12.5 -41t5 -30t0.5 -12v0z
M546 264q35 -15 56 -18.5t51 -18.5q26 -13 45 -35.5t27.5 -43.5t13.5 -45t5.5 -33t0.5 -14v0v0q0 -15 -10 -25t-24 -10h-670q-14 0 -24 10t-10 25v0v0q0 5 0.5 13.5t5.5 33t13.5 45t27.5 44t45 35.5q29 15 50.5 18t56.5 17q32 13 54.5 23t28.5 14l6 3l1 68l-8 8t-14.5 26.5
t-12.5 50.5q-12 -3 -17.5 8.5t-6.5 26.5q0 2 -1 12t-1 16.5t0.5 15t3.5 12t9 2.5q-8 56 -6 75q4 42 41.5 75t93.5 36q64 -2 96.5 -34.5t36.5 -76.5q2 -17 -6 -75q6 1 9.5 -2.5t4 -12t0 -15t-1.5 -16.5t-1 -12q-1 -15 -6.5 -26.5t-16.5 -8.5q-4 -28 -13 -49.5t-16 -27.5
l-7 -7l1 -68q17 -10 89 -39v0z" />
    <glyph glyph-name="xingbie" unicode="&#xe96a;" 
d="M455.5 464q-70.5 0 -120 -49.5t-49.5 -119.5t49.5 -120t120 -50t120 50t49.5 120t-49.5 119.5t-120 49.5zM512 829q-91 0 -173.5 -35t-142 -94.5t-94.5 -142t-35 -173.5t35 -173.5t94.5 -142t142 -94.5t173.5 -35t173.5 35t142 94.5t94.5 142t35 173.5t-35 173.5
t-94.5 142t-142 94.5t-173.5 35zM794 461q0 -10 -7.5 -17.5t-18 -7.5t-18 7.5t-7.5 17.5v107l-120 -130q53 -62 53 -143q0 -92 -64.5 -156.5t-156 -64.5t-156 64.5t-64.5 156t64.5 156t155.5 64.5q73 0 130 -42l125 135h-113q-11 0 -18.5 7.5t-7.5 18t7.5 18t18.5 7.5h172v0
q9 0 16 -6l4 -4q5 -6 5 -14v-2v-172z" />
    <glyph glyph-name="yuanquan" unicode="&#xe69d;" 
d="M512 -120q-103 0 -197.5 40t-162 108t-108 161t-40.5 195q0 103 40.5 197t108.5 162t162 108.5t197 40.5q102 0 195 -40.5t161 -108t108 -160.5t40 -195q0 -104 -40 -198t-108 -161.5t-161 -108t-195 -40.5zM512 853q-95 0 -182 -37.5t-149.5 -100t-100 -149.5
t-37.5 -182t36.5 -181t99 -148.5t148.5 -99t181 -36.5t181 36.5t148.5 99t99.5 148.5t37 181t-36.5 181.5t-98 150t-147 100.5t-180.5 37z" />
    <glyph glyph-name="pinglun" unicode="&#xe61d;" horiz-adv-x="1177" 
d="M891 81h-125l1 -1q-85 0 -171 -11.5t-147.5 -29t-111 -34.5t-74.5 -29l-25 -12v116q0 1 0.5 2t0.5 2q-63 7 -105 54.5t-42 111.5v387q0 70 49 119.5t119 49.5h631q70 0 119 -49.5t49 -119.5v-387q0 -70 -49.5 -119.5t-118.5 -49.5zM373 494q-26 0 -44.5 -18t-18.5 -43.5
t18.5 -43.5t44.5 -18t44.5 18t18.5 43.5t-18.5 43.5t-44.5 18zM591 494q-26 0 -44 -18t-18 -43.5t18.5 -43.5t44 -18t43.5 18t18 43.5t-18 43.5t-44 18zM809 494q-26 0 -44.5 -18t-18.5 -43.5t18.5 -43.5t44.5 -18t44.5 18t18.5 43.5t-18.5 43.5t-44.5 18z" />
    <glyph glyph-name="riqi" unicode="&#xe610;" 
d="M951 -128h-878q-30 0 -51.5 21.5t-21.5 51.5v732q0 30 21.5 51.5t51.5 21.5h73v-144q0 -30 21.5 -51.5t52.5 -21.5h73q30 0 51.5 21t21.5 52v144h292v-144q0 -30 21.5 -51.5t52.5 -21.5h73q30 0 51.5 21t21.5 52v144h73q30 0 51.5 -21.5t21.5 -51.5v-732
q0 -30 -21.5 -51.5t-51.5 -21.5zM951 457h-880v-510h880v510zM254 117q15 19 36 34q15 11 44 32q13 9 26 17q14 9 24 19q12 10 19 23q8 13 8 29q0 27 -16 42q-15 14 -39 14q-16 0 -27 -7q-11 -8 -18 -20q-7 -13 -9 -27q-3 -14 -3 -29h-70q-2 31 7 58q8 26 25 46q16 20 41 31
t58 11q25 0 47 -7q24 -9 40 -22q17 -15 27 -36t10 -48t-9 -47t-23 -35t-33 -28q-12 -8 -37 -24q-18 -12 -36 -26q-17 -14 -31 -33h171v-63h-266q0 31 9 55q9 23 25 41zM728 383v-218h49v-60h-49v-84h-69v84h-154v67l158 211h65zM658 291h-1l-94 -126h96v126h-1zM766.5 605
q-15.5 0 -26.5 11t-11 27v216q0 15 11 26t26.5 11t26.5 -11t11 -26v-216q0 -16 -11 -27t-26.5 -11zM254.5 605q-15.5 0 -26.5 11t-11 27v216q0 15 11 26t26.5 11t26.5 -11t11 -26v-216q0 -16 -11 -27t-26.5 -11z" />
    <glyph glyph-name="xiazai" unicode="&#xe607;" 
d="M899 421v-309q0 -41 -29.5 -70.5t-70.5 -29.5h-581q-42 0 -71 29.5t-29 70.5v457q0 42 29 71t71 29h71v47h-71q-61 0 -104 -43t-43 -104v-457q0 -61 43 -103.5t104 -42.5h581q60 0 103 42.5t43 103.5v317q-6 -4 -23 -7t-23 -1zM278 438l215 -215q6 -6 16 -6t16 6l217 217
q7 7 7 16.5t-7 16t-16.5 6.5t-16.5 -6l-178 -179v480q0 10 -6.5 16.5t-16.5 6.5t-16.5 -6.5t-6.5 -16.5v-478l-174 175q-7 6 -16.5 6t-16 -6.5t-7 -16.5t6.5 -16zM118 421q-7 -2 -23.5 1t-23.5 7v-316q0 -61 43 -104t104 -43h581q60 0 103 43t43 104v456q0 61 -43 104
t-103 43h-71v-47h71q41 0 70.5 -29t29.5 -71v-457q0 -41 -29.5 -70.5t-70.5 -29.5h-581q-42 0 -71 29.5t-29 70.5v309z" />
    <glyph glyph-name="xie" unicode="&#xe65e;" 
d="M435 307q-2 0 -2 2l7 154q0 2 2 4l302 300q1 1 2 1t1 -1l142 -141q1 0 1 -1t-1 -2l-302 -300q-2 -1 -4 -1zM491 445q-2 -1 -2 -3l-4 -78q0 -2 2 -2l74 8q2 0 3 1l254 252q1 1 1 2t-1 1l-71 70q0 1 -1 1t-2 -1zM880 4q0 -2 -2 -2h-733q-2 0 -2 2v733q0 2 2 2h365q2 0 2 -2
v-46q0 -2 -2 -2h-315q-2 0 -2 -2v-633q0 -2 2 -2h633q2 0 2 2v306q0 2 2 2h46q2 0 2 -2v-356zM512 557q0 -2 -2 -2h-251q-2 0 -2 2v46q0 2 2 2h251q2 0 2 -2v-46zM377 434q0 -2 -2 -2h-116q-2 0 -2 2v46q0 2 2 2h116q2 0 2 -2v-46zM377 311q0 -2 -2 -2h-116q-2 0 -2 2v47
q0 2 2 2h116q2 0 2 -2v-47zM766 189q0 -2 -2 -2h-505q-2 0 -2 2v46q0 2 2 2h505q2 0 2 -2v-46z" />
    <glyph glyph-name="view" unicode="&#xe608;" 
d="M512 558q-68 0 -116.5 -48.5t-48.5 -116.5t48.5 -116t116.5 -48t116.5 48t48.5 116t-48.5 116.5t-116.5 48.5zM512 283q-45 0 -77.5 32.5t-32.5 78t32.5 77.5t77.5 32t77.5 -32t32.5 -77.5t-32.5 -78t-77.5 -32.5zM972 410q-51 65 -133 128q-72 56 -145 89
q-93 40 -182 40t-182 -40q-73 -33 -145 -89q-82 -64 -133 -128l-14 -17l14 -17q51 -64 133 -128q72 -56 145 -88q93 -41 182 -41t182 41q73 32 145 88q82 64 133 128l14 17zM805 291q-66 -52 -133 -81q-82 -36 -160 -36q-77 0 -159 36q-67 29 -133 81q-61 46 -111 102
q50 56 110 102q66 52 133 81q82 37 160 37q77 0 159 -36q67 -30 133 -81q61 -47 111 -103q-50 -55 -110 -102z" />
    <glyph glyph-name="xingbie1" unicode="&#xe627;" 
d="M512 896q-104 0 -198.5 -40.5t-163.5 -109t-109.5 -163.5t-40.5 -199t40.5 -199t109.5 -163.5t163.5 -109t198.5 -40.5t198.5 40.5t163.5 109.5t109.5 163.5t40.5 198.5t-40.5 198.5t-109.5 163.5t-163.5 109.5t-198.5 40.5zM526 352q46 0 83 26t52 69q3 8 11 11.5
t16 1.5q8 -3 11.5 -11t1.5 -16q-19 -49 -60.5 -81.5t-94.5 -37.5v-70h88q8 0 14 -6t6 -14t-6 -14t-14 -6h-88v-88q0 -8 -5.5 -13.5t-14 -5.5t-14 5.5t-5.5 13.5v88h-88q-8 0 -14 6t-6 14t6 14t14 6h88v70q-70 7 -117.5 59t-47.5 122q0 77 54 131t130 54q59 0 107 -33.5
t68 -88.5q6 -17 -13 -27q-17 -6 -27 13q-15 43 -52 69t-83 26q-59 0 -101 -42t-42 -101.5t42 -101.5t101 -42z" />
  </font>
</defs>
</svg>
